<?xml version="1.0" standalone="no"?>
<!DOCTYPE svg PUBLIC "-//W3C//DTD SVG 1.1//EN" "http://www.w3.org/Graphics/SVG/1.1/DTD/svg11.dtd" >
<svg>
<metadata>
Created by FontForge 20090914 at Fri Feb 24 04:03:23 2012
 By root
001 Interstellar Log &#194;&#169; (Yellowyellow). 2006. All Rights Reserved
</metadata>
<defs>
<font id="001_Interstellar_Log" horiz-adv-x="1567" >
  <font-face 
    font-family="001 Interstellar Log"
    font-weight="400"
    font-stretch="normal"
    units-per-em="2048"
    panose-1="2 0 0 0 0 0 0 0 0 0"
    ascent="1638"
    descent="-410"
    x-height="1494"
    cap-height="1499.5"
    bbox="-33 -399.575 3534.21 2156"
    underline-thickness="150"
    underline-position="-142"
    unicode-range="U+0020-U+F002"
  />
<missing-glyph horiz-adv-x="1536" 
d="M256 0v1280h1024v-1280h-1024zM288 32h960v1216h-960v-1216z" />
    <glyph glyph-name=".notdef" horiz-adv-x="1536" 
d="M256 0v1280h1024v-1280h-1024zM288 32h960v1216h-960v-1216z" />
    <glyph glyph-name=".null" horiz-adv-x="0" 
 />
    <glyph glyph-name="nonmarkingreturn" horiz-adv-x="569" 
 />
    <glyph glyph-name="space" unicode=" " horiz-adv-x="569" 
 />
    <glyph glyph-name="space" unicode="&#xa0;" horiz-adv-x="569" 
 />
    <glyph glyph-name="exclam" unicode="!" horiz-adv-x="494" 
d="M209 294q-203 0 -203 -146t203 -146t203 146t-203 146zM197.5 1491q-197.5 0 -197.5 -522t197.5 -522t197.5 522t-197.5 522z" />
    <glyph glyph-name="quotedbl" unicode="&#x22;" horiz-adv-x="770" 
d="M148.5 1491q-148.5 0 -148.5 -246t148.5 -246t148.5 246t-148.5 246zM551.5 1491q-148.5 0 -148.5 -245t148.5 -245t148.5 245t-148.5 245z" />
    <glyph glyph-name="quotedbl" unicode="&#x201d;" horiz-adv-x="770" 
d="M148.5 1491q-148.5 0 -148.5 -246t148.5 -246t148.5 246t-148.5 246zM551.5 1491q-148.5 0 -148.5 -245t148.5 -245t148.5 245t-148.5 245z" />
    <glyph glyph-name="quotedbl" unicode="&#x201c;" horiz-adv-x="770" 
d="M148.5 1491q-148.5 0 -148.5 -246t148.5 -246t148.5 246t-148.5 246zM551.5 1491q-148.5 0 -148.5 -245t148.5 -245t148.5 245t-148.5 245z" />
    <glyph glyph-name="numbersign" unicode="#" horiz-adv-x="2200" 
d="M810.5 1499q810.5 0 815.5 -745t-179.5 -745t-184.5 554.5t-444.5 554.5t-449 -559.5t-186.5 -554.5t-182 750t810.5 745zM1868 1482.5q251 -1.5 249 -228.5t-251 -227t-249 228.5t251 227zM1784 1241q0 -92 81 -92t81 92t-81 92t-81 -92z" />
    <glyph glyph-name="dollar" unicode="$" horiz-adv-x="607" 
d="M364 1324q-160 0 -160 -156.5t-102 -156.5t-102 -108t184 -108t184 157t78 157t78 107.5t-160 107.5zM291 1472q-84 0 -84 -58.5t84 -58.5t84 58.5t-84 58.5zM278 767q-84 0 -84 -57.5t84 -57.5t84 57.5t-84 57.5z" />
    <glyph glyph-name="percent" unicode="%" horiz-adv-x="2217" 
d="M1120 1487q-235 0 -235 -550.5t-58.5 -550.5t-58.5 -193t224.5 -193t224.5 553.5t69 553.5t69 190t-235 190zM373.5 643q373.5 0 373.5 427.5t-373.5 427.5t-373.5 -427.5t373.5 -427.5zM375.5 932q-134.5 0 -134.5 145t134.5 145t134.5 -145t-134.5 -145zM1761.5 3
q373.5 0 373.5 428t-373.5 428t-373.5 -428t373.5 -428zM1763.5 293q-134.5 0 -134.5 144.5t134.5 144.5t134.5 -144.5t-134.5 -144.5z" />
    <glyph glyph-name="ampersand" unicode="&#x26;" horiz-adv-x="993" 
d="M470 1001q138 0 156.5 -169t165.5 -188.5t129 -178.5t-147 -159t-129 -149t-175 -149t-175 149t-147.5 149t-147.5 178.5t147.5 178.5t166 169t156.5 169z" />
    <glyph glyph-name="quotesingle" unicode="'" horiz-adv-x="389" 
d="M148.5 1491q-148.5 0 -148.5 -246t148.5 -246t148.5 246t-148.5 246z" />
    <glyph glyph-name="parenleft" unicode="(" horiz-adv-x="757" 
d="M341 1498q-341 0 -341 -749t339.5 -749t339.5 195.5t-147.5 195.5t-147.5 358t149 358t149 195.5t-341 195.5z" />
    <glyph glyph-name="parenright" unicode=")" horiz-adv-x="742" 
d="M337 4q337 0 337 739.5t-335.5 739.5t-335.5 -193t145.5 -193t145.5 -353.5t-147 -353.5t-147 -193t337 -193z" />
    <glyph glyph-name="asterisk" unicode="*" horiz-adv-x="966" 
d="M445.5 1488q-148.5 0 -148.5 -109.5t148.5 -109.5t148.5 109.5t-148.5 109.5zM148.5 1267q-148.5 0 -148.5 -110t148.5 -110t148.5 110t-148.5 110zM740.5 1275q-148.5 0 -148.5 -109.5t148.5 -109.5t148.5 109.5t-148.5 109.5zM291.5 1006q-148.5 0 -148.5 -109.5
t148.5 -109.5t148.5 109.5t-148.5 109.5zM627.5 1006q-148.5 0 -148.5 -109.5t148.5 -109.5t148.5 109.5t-148.5 109.5z" />
    <glyph glyph-name="plus" unicode="+" horiz-adv-x="989" 
d="M470 1001q138 0 156.5 -169t165.5 -188.5t129 -178.5t-147 -159t-129 -149t-175 -149t-175 149t-147.5 149t-147.5 178.5t147.5 178.5t166 169t156.5 169z" />
    <glyph glyph-name="comma" unicode="," horiz-adv-x="246" 
d="M95.5 193q95.5 0 95.5 -165.5t-95.5 -165.5t-95.5 165.5t95.5 165.5z" />
    <glyph glyph-name="hyphen" unicode="-" horiz-adv-x="593" 
d="M264 581q260 0 260 -90.5t-260 -90.5t-260 90.5t260 90.5z" />
    <glyph glyph-name="hyphen" unicode="&#xad;" horiz-adv-x="593" 
d="M264 581q260 0 260 -90.5t-260 -90.5t-260 90.5t260 90.5z" />
    <glyph glyph-name="period" unicode="." horiz-adv-x="246" 
d="M89.5 193q89.5 0 89.5 -96.5t-89.5 -96.5t-89.5 96.5t89.5 96.5z" />
    <glyph glyph-name="slash" unicode="/" horiz-adv-x="685" 
d="M352.5 1487q-235.5 0 -235.5 -550.5t-58.5 -550.5t-58.5 -193t224.5 -193t224.5 553.5t69.5 553.5t69.5 190t-235.5 190z" />
    <glyph glyph-name="zero" unicode="0" horiz-adv-x="1678" 
d="M792.5 1494q792.5 -5 787.5 -749.5t-792.5 -744.5t-787.5 749.5t792.5 744.5zM355 724q0 -394 435 -394t435 394t-435 394t-435 -394z" />
    <glyph glyph-name="one" unicode="1" horiz-adv-x="542" 
d="M461 752q0 -754 -230.5 -747.5t-230.5 747.5t230.5 747.5t230.5 -747.5z" />
    <glyph glyph-name="two" unicode="2" horiz-adv-x="2052" 
d="M1161 940.5q0 -553.5 400.5 -558.5t400.5 -189.5t-576 -184.5t-576 556t-405 561t-405 187t580.5 182t580.5 -553.5z" />
    <glyph glyph-name="three" unicode="3" horiz-adv-x="1409" 
d="M5 189.5q-5 190.5 494 195.5t499 89t-499 89t-494 195.5t499 190.5t494 83.5t-499 89t-494 196t669 185.5t664 -749.5t-664 -749.5t-669 185.5z" />
    <glyph glyph-name="four" unicode="4" horiz-adv-x="1603" 
d="M1342.5 1494q-170.5 0 -170.5 -362.5t-413 -362.5t-413 364t-173 365.5t-173 -553t756.5 -554.5t756.5 551.5t-170.5 551.5zM1135 198.5q0 -198.5 188 -198.5t188 198.5t-188 198.5t-188 -198.5z" />
    <glyph glyph-name="five" unicode="5" horiz-adv-x="2060" 
d="M1959 1310.5q-5 -188.5 -404.5 -188.5t-399.5 -557t-577.5 -557t-572.5 191t392.5 191t387.5 554.5t589.5 554.5t584.5 -188.5z" />
    <glyph glyph-name="six" unicode="6" horiz-adv-x="1265" 
d="M296 1302.5q16 -209.5 460 -230.5t428 -554.5t-600 -512.5t-584 743t140 743t156 -188.5zM312 538q0 -157 288 -157t288 157t-288 157t-288 -157z" />
    <glyph glyph-name="seven" unicode="7" horiz-adv-x="1251" 
d="M1132 749q0 749 -566 749t-566 -189t377 -189t377 -560t189 -560t189 749z" />
    <glyph glyph-name="eight" unicode="8" horiz-adv-x="1495" 
d="M708 1499q703 -5 698.5 -752t-705.5 -747t-698.5 752t705.5 747zM366 1030.5q0 -83.5 344.5 -83.5t344.5 83.5t-344.5 83.5t-344.5 -83.5zM366 473.5q0 -83.5 344.5 -83.5t344.5 83.5t-344.5 83.5t-344.5 -83.5z" />
    <glyph glyph-name="nine" unicode="9" horiz-adv-x="1290" 
d="M1209 739q-15 -755 -140 -734t-125 191t-472 191.5t-472 564t612 542.5t597 -755zM280 952q0 -181 332 -181t332 181t-332 181t-332 -181z" />
    <glyph glyph-name="colon" unicode=":" horiz-adv-x="246" 
d="M89.5 193q89.5 0 89.5 -96.5t-89.5 -96.5t-89.5 96.5t89.5 96.5zM94.5 457q89.5 0 89.5 -96.5t-89.5 -96.5t-89.5 96.5t89.5 96.5z" />
    <glyph glyph-name="semicolon" unicode=";" horiz-adv-x="267" 
d="M103.5 154q95.5 0 95.5 -165.5t-95.5 -165.5t-95.5 165.5t95.5 165.5zM98.5 431q89.5 0 89.5 -96.5t-89.5 -96.5t-89.5 96.5t89.5 96.5z" />
    <glyph glyph-name="semicolon" unicode="&#x37e;" horiz-adv-x="267" 
d="M103.5 154q95.5 0 95.5 -165.5t-95.5 -165.5t-95.5 165.5t95.5 165.5zM98.5 431q89.5 0 89.5 -96.5t-89.5 -96.5t-89.5 96.5t89.5 96.5z" />
    <glyph glyph-name="less" unicode="&#x3c;" horiz-adv-x="1611" 
d="M937 757.5q-552 -10.5 -552 -203t552 -192.5t557 -183.5t-562.5 -183.5t-749.5 188.5t-182 381.5t195 386.5t744.5 193.5t549.5 -188.5t-552 -199z" />
    <glyph glyph-name="equal" unicode="=" horiz-adv-x="598" 
d="M260 649q260 0 260 -90.5t-260 -90.5t-260 90.5t260 90.5zM264 402q260 0 260 -90.5t-260 -90.5t-260 90.5t260 90.5z" />
    <glyph glyph-name="greater" unicode="&#x3e;" horiz-adv-x="1626" 
d="M584 410.5q552 10.5 552 203t-552 192.5t-557 183.5t562.5 183.5t749.5 -188.5t182 -381.5t-195 -386.5t-744.5 -193.5t-549.5 188.5t552 199z" />
    <glyph glyph-name="question" unicode="?" horiz-adv-x="1086" 
d="M1014 1015.5q0 475.5 -507 475.5t-507 -188.5t338 -188.5t338 -287t169 -287t169 475.5zM845.5 294q-172.5 0 -172.5 -146t172.5 -146t172.5 146t-172.5 146z" />
    <glyph glyph-name="at" unicode="@" horiz-adv-x="1588" 
d="M699 1477q684 0 684 -589t-546 -589t-546 413t386 413t400.5 -254.5t73 -254.5t58.5 325t-517 325t-517 -518.5t669.5 -518.5t669.5 -105.5t-757 -114.5t-749.5 729.5t691.5 738.5zM466 712q0 -202 218.5 -202t218.5 202t-218.5 202t-218.5 -202z" />
    <glyph glyph-name="A" unicode="A" horiz-adv-x="1754" 
d="M805 1494q805 0 810 -742.5t-178 -742.5t-183 185t-441.5 185t-446.5 -190t-185.5 -185t-180.5 747.5t805 742.5zM371 936.5q0 -177.5 441.5 -177.5t441.5 177.5t-441.5 177.5t-441.5 -177.5z" />
    <glyph glyph-name="B" unicode="B" horiz-adv-x="1550" 
d="M1469 768.5q0 -725.5 -402.5 -747t-402.5 181.5t211.5 203t211.5 85t-211.5 85t-211.5 203t211.5 203t211.5 74.5t-352.5 74.5t-350 -566t-188.5 -566t-193.5 747.5t732 747.5t734.5 -725.5z" />
    <glyph glyph-name="C" unicode="C" horiz-adv-x="1418" 
d="M678 1499q669 -5 669 -190t-502.5 -190.5t-502.5 -367.5t502.5 -367.5t502.5 -190.5t-673.5 -185t-669 748t673.5 743z" />
    <glyph glyph-name="D" unicode="D" horiz-adv-x="1465" 
d="M1382 749.5q0 -749.5 -686 -749.5t-691 474.5t172 480t182 -280t344.5 -285.5t339.5 360.5t-519 365.5t-519 189.5t688.5 189.5t688.5 -744.5z" />
    <glyph glyph-name="E" unicode="E" horiz-adv-x="1409" 
d="M1333 1317.5q5 -190.5 -494 -195.5t-499 -89t499 -89t494 -195.5t-499 -190.5t-494 -83.5t499 -89t494 -196t-669 -185.5t-664 749.5t664 749.5t669 -185.5z" />
    <glyph glyph-name="F" unicode="F" horiz-adv-x="1524" 
d="M724.5 1499q714.5 0 719.5 -189.5t-535.5 -195t-540.5 -88.5t540.5 -88t540.5 -189.5t-540.5 -190t-540.5 -278t-184 -272.5t-179 745.5t719.5 745.5z" />
    <glyph glyph-name="G" unicode="G" horiz-adv-x="2030" 
d="M780.5 1495.5q773.5 -3.5 770 -196.5t-579.5 -193t-576 -358.5t578 -358.5t581.5 171t199 167.5t195.5 -362t-974.5 -358.5t-971 746t777 742.5z" />
    <glyph glyph-name="H" unicode="H" horiz-adv-x="1528" 
d="M183.5 1489q183.5 -5 183.5 -276.5t344 -271.5t344 271.5t183.5 276.5t183.5 -742t-183.5 -742t-183.5 276.5t-344 271.5t-349 -276.5t-183.5 -276.5t-178.5 747t183.5 742z" />
    <glyph glyph-name="I" unicode="I" horiz-adv-x="542" 
d="M461 752q0 -754 -230.5 -747.5t-230.5 747.5t230.5 747.5t230.5 -747.5z" />
    <glyph glyph-name="J" unicode="J" horiz-adv-x="1209" 
d="M920.5 1491q170.5 -4 170.5 -750t-545.5 -746t-541 157t370.5 157t370.5 593t175 589z" />
    <glyph glyph-name="K" unicode="K" horiz-adv-x="1448" 
d="M1227 1199.5q-70 -255.5 33.5 -261t103.5 -467.5t-173.5 -467t-178 272.5t-330.5 277.5t-330.5 -277.5t-178 -272.5t-169 750t173.5 745t173.5 -277.5t211 -277.5t276 255.5t264 255.5t124.5 -255.5z" />
    <glyph glyph-name="L" unicode="L" horiz-adv-x="1274" 
d="M171 1494q171 0 176 -554t417.5 -559t407.5 -193t-588.5 -188t-583.5 747t171 747z" />
    <glyph glyph-name="M" unicode="M" horiz-adv-x="2570" 
d="M2489 749q-4 -750 -159 -745t-155 563t-383.5 558t-383.5 -558t-157 -563t-161.5 558t-386 563t-381.5 -558t-161 -558t-161 745t1246.5 745t1242.5 -750z" />
    <glyph glyph-name="N" unicode="N" horiz-adv-x="1698" 
d="M810.5 1499q810.5 0 815.5 -745t-179.5 -745t-184.5 554.5t-444.5 554.5t-449 -559.5t-186.5 -554.5t-182 750t810.5 745z" />
    <glyph glyph-name="O" unicode="O" horiz-adv-x="1678" 
d="M792.5 1494q792.5 -5 787.5 -749.5t-792.5 -744.5t-787.5 749.5t792.5 744.5zM355 724q0 -394 435 -394t435 394t-435 394t-435 -394z" />
    <glyph glyph-name="P" unicode="P" horiz-adv-x="1575" 
d="M743 1494q743 0 743 -558t-572 -558t-572 -185t-171 -185t-171 743t743 743zM342 936.5q0 -177.5 407.5 -177.5t407.5 177.5t-407.5 177.5t-407.5 -177.5z" />
    <glyph glyph-name="Q" unicode="Q" horiz-adv-x="1759" 
d="M841 1499q841 -5 841 -747.5t-841 -747.5t-841 747.5t841 747.5zM377 725.5q0 -395.5 250 -395.5t250 186t211.5 191.5t211.5 209.5t-461.5 204t-461.5 -395.5z" />
    <glyph glyph-name="R" unicode="R" 
d="M730 1494q730 -5 730 -554.5t-162.5 -554.5t-88 -188.5t-108 -183.5t-257 183.5t-292.5 183.5t-218 -186t-167 -186t-167 745.5t730 740.5zM334 939q0 -178 398 -178t398 178t-398 178t-398 -178z" />
    <glyph glyph-name="S" unicode="S" horiz-adv-x="2060" 
d="M1959 1310.5q-5 -188.5 -404.5 -188.5t-399.5 -557t-577.5 -557t-572.5 191t392.5 191t387.5 554.5t589.5 554.5t584.5 -188.5z" />
    <glyph glyph-name="T" unicode="T" horiz-adv-x="1496" 
d="M1395 1320q0 -179 -236 -184.5t-236 -566.5t-203.5 -561t-203.5 561t-258 566.5t-258 184.5t697.5 179t697.5 -179z" />
    <glyph glyph-name="U" unicode="U" 
d="M333.5 937q4.5 -562 407.5 -562t407.5 559.5t162.5 559.5t158 -747.5t-734.5 -742.5t-734.5 745t164.5 745t169 -557z" />
    <glyph glyph-name="V" unicode="V" horiz-adv-x="1256" 
d="M387.5 937q10.5 -552 203 -552t192.5 552t183.5 557t183.5 -562.5t-188.5 -749.5t-381.5 -182t-386.5 195t-193.5 744.5t188.5 549.5t199 -552z" />
    <glyph glyph-name="W" unicode="W" horiz-adv-x="2625" 
d="M163.5 1494q154.5 0 159 -558.5t391 -558.5t391 556t159 556t159 -556t393.5 -556t389 548.5t161 548.5t161 -733t-1263.5 -733t-1259 743t159 743z" />
    <glyph glyph-name="X" unicode="X" horiz-adv-x="1469" 
d="M218 1494q218 -5 309.5 -422.5t-218 -283.5t-309.5 422.5t218 283.5zM1361 1198q-6 -291 -85 -362t-218 -165t-383.5 -382.5t-456.5 -288.5t-212 291t215 291t280.5 91t241.5 167.5t176 362.5t224 286t218 -291zM1223.5 8q-212.5 -47 -401 336.5t144 327t401 -336.5
t-144 -327z" />
    <glyph glyph-name="Y" unicode="Y" horiz-adv-x="1783" 
d="M389 1128q0 -361 463 -361t468 366t189.5 366t184.5 -554t-294.5 -554t-299.5 -196t-212.5 -191t-207.5 196t-337.5 191t-340 554t192 549t194.5 -366z" />
    <glyph glyph-name="Z" unicode="Z" horiz-adv-x="2052" 
d="M1161 940.5q0 -553.5 400.5 -558.5t400.5 -189.5t-576 -184.5t-576 556t-405 561t-405 187t580.5 182t580.5 -553.5z" />
    <glyph glyph-name="bracketleft" unicode="[" horiz-adv-x="757" 
d="M341 1498q-341 0 -341 -749t339.5 -749t339.5 195.5t-147.5 195.5t-147.5 358t149 358t149 195.5t-341 195.5z" />
    <glyph glyph-name="backslash" unicode="\" horiz-adv-x="685" 
d="M70.5 1107q70.5 0 70.5 -553.5t227.5 -553.5t227.5 193t-59.5 193t-59.5 550.5t-238.5 550.5t-238.5 -190t70.5 -190z" />
    <glyph glyph-name="bracketright" unicode="]" horiz-adv-x="742" 
d="M337 4q337 0 337 739.5t-335.5 739.5t-335.5 -193t145.5 -193t145.5 -353.5t-147 -353.5t-147 -193t337 -193z" />
    <glyph glyph-name="asciicircum" unicode="^" horiz-adv-x="439" 
d="M209 1490q179 0 191 -170.5t-71.5 -170.5t-83.5 106.5t-42 106.5t-42 -106.5t-65.5 -117t-65.5 170.5t179 181z" />
    <glyph glyph-name="underscore" unicode="_" horiz-adv-x="1194" 
d="M602 -142q635 0 635 -90.5t-635 -90.5t-635 90.5t635 90.5z" />
    <glyph glyph-name="grave" unicode="`" horiz-adv-x="315" 
d="M41.5 1464.5q-82.5 -49.5 -4 -192t161 -93t4 192t-161 93z" />
    <glyph glyph-name="a" unicode="a" horiz-adv-x="1652" 
d="M764 1499q764 0 764 -749.5t-164.5 -749.5t-169 559t-423.5 559t-419 -554t-171.5 -559t-176 744.5t759.5 749.5zM958 571.5q0 -190.5 -187.5 -185.5t-187.5 185.5t187.5 185.5t187.5 -185.5z" />
    <glyph glyph-name="b" unicode="b" horiz-adv-x="1550" 
d="M1469 768.5q0 -725.5 -402.5 -747t-402.5 181.5t211.5 203t211.5 85t-211.5 85t-211.5 203t211.5 203t211.5 74.5t-352.5 74.5t-350 -566t-188.5 -566t-193.5 747.5t732 747.5t734.5 -725.5z" />
    <glyph glyph-name="c" unicode="c" horiz-adv-x="1418" 
d="M678 1499q669 -5 669 -190t-502.5 -190.5t-502.5 -367.5t502.5 -367.5t502.5 -190.5t-673.5 -185t-669 748t673.5 743z" />
    <glyph glyph-name="d" unicode="d" horiz-adv-x="1465" 
d="M1382 749.5q0 -749.5 -686 -749.5t-691 474.5t172 480t182 -280t344.5 -285.5t339.5 360.5t-519 365.5t-519 189.5t688.5 189.5t688.5 -744.5z" />
    <glyph glyph-name="e" unicode="e" horiz-adv-x="1409" 
d="M1333 1317.5q5 -190.5 -494 -195.5t-499 -89t499 -89t494 -195.5t-499 -190.5t-494 -83.5t499 -89t494 -196t-669 -185.5t-664 749.5t664 749.5t669 -185.5z" />
    <glyph glyph-name="f" unicode="f" horiz-adv-x="1524" 
d="M724.5 1499q714.5 0 719.5 -189.5t-535.5 -195t-540.5 -88.5t540.5 -88t540.5 -189.5t-540.5 -190t-540.5 -278t-184 -272.5t-179 745.5t719.5 745.5z" />
    <glyph glyph-name="g" unicode="g" horiz-adv-x="2030" 
d="M780.5 1495.5q773.5 -3.5 770 -196.5t-579.5 -193t-576 -358.5t578 -358.5t581.5 171t199 167.5t195.5 -362t-974.5 -358.5t-971 746t777 742.5z" />
    <glyph glyph-name="h" unicode="h" horiz-adv-x="1528" 
d="M183.5 1489q183.5 -5 183.5 -276.5t344 -271.5t344 271.5t183.5 276.5t183.5 -742t-183.5 -742t-183.5 276.5t-344 271.5t-349 -276.5t-183.5 -276.5t-178.5 747t183.5 742z" />
    <glyph glyph-name="i" unicode="i" horiz-adv-x="542" 
d="M461 1370q0 -129 -230.5 -123.5t-230.5 124t230.5 123.5t230.5 -124zM461 564.5q0 -565.5 -230.5 -560.5t-230.5 560.5t230.5 560.5t230.5 -560.5z" />
    <glyph glyph-name="j" unicode="j" horiz-adv-x="1273" 
d="M920.5 1172q170.5 -5 170.5 -748t-545.5 -743t-541 190.5t370.5 190.5t370.5 557.5t175 552.5zM1155 1370q0 -129 -230.5 -123.5t-230.5 124t230.5 123.5t230.5 -124z" />
    <glyph glyph-name="k" unicode="k" horiz-adv-x="1448" 
d="M1227 1199.5q-70 -255.5 33.5 -261t103.5 -467.5t-173.5 -467t-178 272.5t-330.5 277.5t-330.5 -277.5t-178 -272.5t-169 750t173.5 745t173.5 -277.5t211 -277.5t276 255.5t264 255.5t124.5 -255.5z" />
    <glyph glyph-name="l" unicode="l" horiz-adv-x="1274" 
d="M171 1494q171 0 176 -554t417.5 -559t407.5 -193t-588.5 -188t-583.5 747t171 747z" />
    <glyph glyph-name="m" unicode="m" horiz-adv-x="2570" 
d="M2489 749q-4 -750 -159 -745t-155 563t-383.5 558t-383.5 -558t-157 -563t-161.5 558t-386 563t-381.5 -558t-161 -558t-161 745t1246.5 745t1242.5 -750z" />
    <glyph glyph-name="n" unicode="n" horiz-adv-x="1698" 
d="M810.5 1499q810.5 0 815.5 -745t-179.5 -745t-184.5 554.5t-444.5 554.5t-449 -559.5t-186.5 -554.5t-182 750t810.5 745z" />
    <glyph glyph-name="o" unicode="o" horiz-adv-x="1678" 
d="M792.5 1494q792.5 -5 787.5 -749.5t-792.5 -744.5t-787.5 749.5t792.5 744.5zM355 724q0 -394 435 -394t435 394t-435 394t-435 -394z" />
    <glyph glyph-name="p" unicode="p" horiz-adv-x="1575" 
d="M743 1494q743 0 743 -558t-572 -558t-572 -185t-171 -185t-171 743t743 743zM342 936.5q0 -177.5 407.5 -177.5t407.5 177.5t-407.5 177.5t-407.5 -177.5z" />
    <glyph glyph-name="q" unicode="q" horiz-adv-x="1759" 
d="M841 1499q841 -5 841 -747.5t-841 -747.5t-841 747.5t841 747.5zM377 725.5q0 -395.5 250 -395.5t250 186t211.5 191.5t211.5 209.5t-461.5 204t-461.5 -395.5z" />
    <glyph glyph-name="r" unicode="r" 
d="M730 1494q730 -5 730 -554.5t-162.5 -554.5t-88 -188.5t-108 -183.5t-257 183.5t-292.5 183.5t-218 -186t-167 -186t-167 745.5t730 740.5zM334 939q0 -178 398 -178t398 178t-398 178t-398 -178z" />
    <glyph glyph-name="s" unicode="s" horiz-adv-x="2060" 
d="M1959 1310.5q-5 -188.5 -404.5 -188.5t-399.5 -557t-577.5 -557t-572.5 191t392.5 191t387.5 554.5t589.5 554.5t584.5 -188.5z" />
    <glyph glyph-name="t" unicode="t" horiz-adv-x="1496" 
d="M1395 1320q0 -179 -236 -184.5t-236 -566.5t-203.5 -561t-203.5 561t-258 566.5t-258 184.5t697.5 179t697.5 -179z" />
    <glyph glyph-name="u" unicode="u" 
d="M333.5 937q4.5 -562 407.5 -562t407.5 559.5t162.5 559.5t158 -747.5t-734.5 -742.5t-734.5 745t164.5 745t169 -557z" />
    <glyph glyph-name="v" unicode="v" horiz-adv-x="1256" 
d="M387.5 937q10.5 -552 203 -552t192.5 552t183.5 557t183.5 -562.5t-188.5 -749.5t-381.5 -182t-386.5 195t-193.5 744.5t188.5 549.5t199 -552z" />
    <glyph glyph-name="w" unicode="w" horiz-adv-x="2625" 
d="M163.5 1494q154.5 0 159 -558.5t391 -558.5t391 556t159 556t159 -556t393.5 -556t389 548.5t161 548.5t161 -733t-1263.5 -733t-1259 743t159 743z" />
    <glyph glyph-name="x" unicode="x" horiz-adv-x="1469" 
d="M218 1494q218 -5 309.5 -422.5t-218 -283.5t-309.5 422.5t218 283.5zM1361 1198q-6 -291 -85 -362t-218 -165t-383.5 -382.5t-456.5 -288.5t-212 291t215 291t280.5 91t241.5 167.5t176 362.5t224 286t218 -291zM1223.5 8q-212.5 -47 -401 336.5t144 327t401 -336.5
t-144 -327z" />
    <glyph glyph-name="y" unicode="y" horiz-adv-x="1783" 
d="M389 1128q0 -361 463 -361t468 366t189.5 366t184.5 -554t-294.5 -554t-299.5 -196t-212.5 -191t-207.5 196t-337.5 191t-340 554t192 549t194.5 -366z" />
    <glyph glyph-name="z" unicode="z" horiz-adv-x="2052" 
d="M1161 940.5q0 -553.5 400.5 -558.5t400.5 -189.5t-576 -184.5t-576 556t-405 561t-405 187t580.5 182t580.5 -553.5z" />
    <glyph glyph-name="braceleft" unicode="{" horiz-adv-x="757" 
d="M341 1498q-341 0 -341 -749t339.5 -749t339.5 195.5t-147.5 195.5t-147.5 358t149 358t149 195.5t-341 195.5z" />
    <glyph glyph-name="bar" unicode="|" horiz-adv-x="542" 
d="M461 550q0 -958 -230.5 -949.5t-230.5 949.5t230.5 949.5t230.5 -949.5z" />
    <glyph glyph-name="braceright" unicode="}" horiz-adv-x="742" 
d="M337 4q337 0 337 739.5t-335.5 739.5t-335.5 -193t145.5 -193t145.5 -353.5t-147 -353.5t-147 -193t337 -193z" />
    <glyph glyph-name="asciitilde" unicode="~" horiz-adv-x="642" 
d="M376 1288q-222 -1 -222.5 -71.5t-74.5 -71t-76.5 101t220.5 103t223.5 73t73.5 71.5t75.5 -102.5t-219.5 -103.5z" />
    <glyph glyph-name="Adieresis" unicode="&#xc4;" horiz-adv-x="1754" 
d="M805 1494q805 0 810 -742.5t-178 -742.5t-183 185t-441.5 185t-446.5 -190t-185.5 -185t-180.5 747.5t805 742.5zM371 936.5q0 -177.5 441.5 -177.5t441.5 177.5t-441.5 177.5t-441.5 -177.5zM662.5 1716q89.5 0 89.5 -96.5t-89.5 -96.5t-89.5 96.5t89.5 96.5z
M887.5 1720q89.5 0 89.5 -96.5t-89.5 -96.5t-89.5 96.5t89.5 96.5z" />
    <glyph glyph-name="Aring" unicode="&#xc5;" horiz-adv-x="1698" 
d="M805 1494q805 0 810 -742.5t-178 -742.5t-183 185t-441.5 185t-446.5 -190t-185.5 -185t-180.5 747.5t805 742.5zM371 936.5q0 -177.5 441.5 -177.5t441.5 177.5t-441.5 177.5t-441.5 -177.5zM811 1817q163 -1 162 -151.5t-163 -150.5t-162 151.5t163 150.5zM757 1657
q0 -61 52.5 -61t52.5 61t-52.5 61t-52.5 -61z" />
    <glyph glyph-name="Ccedilla" unicode="&#xc7;" horiz-adv-x="1418" 
d="M678 1499q669 -5 669 -190t-502.5 -190.5t-502.5 -367.5t502.5 -367.5t502.5 -190.5t-673.5 -185t-669 748t673.5 743zM916.5 -167.5q6.5 -178.5 -163.5 -197t-173 65t103.5 87.5t105 46t-108 38t-119.5 61t168 71.5t187.5 -172z" />
    <glyph glyph-name="Eacute" unicode="&#xc9;" horiz-adv-x="1409" 
d="M1333 1317.5q5 -190.5 -494 -195.5t-499 -89t499 -89t494 -195.5t-499 -190.5t-494 -83.5t499 -89t494 -196t-669 -185.5t-664 749.5t664 749.5t669 -185.5zM735.5 1523.5q84.5 -49.5 164.5 93t-4.5 192t-164.5 -93t4.5 -192z" />
    <glyph glyph-name="Ntilde" unicode="&#xd1;" horiz-adv-x="1698" 
d="M810.5 1499q810.5 0 815.5 -745t-179.5 -745t-184.5 554.5t-444.5 554.5t-449 -559.5t-186.5 -554.5t-182 750t810.5 745zM718 1623q-222 -1 -222.5 -71.5t-74.5 -71t-76.5 101t220.5 103t223.5 73t73.5 71.5t75.5 -102.5t-219.5 -103.5z" />
    <glyph glyph-name="Odieresis" unicode="&#xd6;" horiz-adv-x="1678" 
d="M792.5 1494q792.5 -5 787.5 -749.5t-792.5 -744.5t-787.5 749.5t792.5 744.5zM355 724q0 -394 435 -394t435 394t-435 394t-435 -394zM677.5 1712q89.5 0 89.5 -96.5t-89.5 -96.5t-89.5 96.5t89.5 96.5zM902.5 1716q89.5 0 89.5 -96.5t-89.5 -96.5t-89.5 96.5t89.5 96.5z
" />
    <glyph glyph-name="Udieresis" unicode="&#xdc;" 
d="M333.5 937q4.5 -562 407.5 -562t407.5 559.5t162.5 559.5t158 -747.5t-734.5 -742.5t-734.5 745t164.5 745t169 -557zM606.5 1698q89.5 0 89.5 -96.5t-89.5 -96.5t-89.5 96.5t89.5 96.5zM831.5 1702q89.5 0 89.5 -96.5t-89.5 -96.5t-89.5 96.5t89.5 96.5z" />
    <glyph glyph-name="aacute" unicode="&#xe1;" horiz-adv-x="1637" 
d="M758 1499q764 0 764 -749.5t-164.5 -749.5t-169 559t-423.5 559t-419 -554t-171.5 -559t-176 744.5t759.5 749.5zM952 571.5q0 -190.5 -187.5 -185.5t-187.5 185.5t187.5 185.5t187.5 -185.5zM736.5 1515.5q84.5 -49.5 164.5 93t-4.5 192t-164.5 -93t4.5 -192z" />
    <glyph glyph-name="agrave" unicode="&#xe0;" horiz-adv-x="1644" 
d="M769 1499q764 0 764 -749.5t-164.5 -749.5t-169 559t-423.5 559t-419 -554t-171.5 -559t-176 744.5t759.5 749.5zM963 571.5q0 -190.5 -187.5 -185.5t-187.5 185.5t187.5 185.5t187.5 -185.5zM638.5 1821.5q-82.5 -49.5 -4 -192t161 -93t4 192t-161 93z" />
    <glyph glyph-name="acircumflex" unicode="&#xe2;" horiz-adv-x="1613" 
d="M764 1499q764 0 764 -749.5t-164.5 -749.5t-169 559t-423.5 559t-419 -554t-171.5 -559t-176 744.5t759.5 749.5zM958 571.5q0 -190.5 -187.5 -185.5t-187.5 185.5t187.5 185.5t187.5 -185.5zM730 1856q179 0 191 -170.5t-71.5 -170.5t-83.5 106.5t-42 106.5t-42 -106.5
t-65.5 -117t-65.5 170.5t179 181z" />
    <glyph glyph-name="adieresis" unicode="&#xe4;" horiz-adv-x="1630" 
d="M764 1499q764 0 764 -749.5t-164.5 -749.5t-169 559t-423.5 559t-419 -554t-171.5 -559t-176 744.5t759.5 749.5zM958 571.5q0 -190.5 -187.5 -185.5t-187.5 185.5t187.5 185.5t187.5 -185.5zM644.5 1715q89.5 0 89.5 -96.5t-89.5 -96.5t-89.5 96.5t89.5 96.5z
M869.5 1719q89.5 0 89.5 -96.5t-89.5 -96.5t-89.5 96.5t89.5 96.5z" />
    <glyph glyph-name="atilde" unicode="&#xe3;" horiz-adv-x="1652" 
d="M798 1499q764 0 764 -749.5t-164.5 -749.5t-169 559t-423.5 559t-419 -554t-171.5 -559t-176 744.5t759.5 749.5zM992 571.5q0 -190.5 -187.5 -185.5t-187.5 185.5t187.5 185.5t187.5 -185.5zM789 1645q-222 -1 -222.5 -71.5t-74.5 -71t-76.5 101t220.5 103t223.5 73
t73.5 71.5t75.5 -102.5t-219.5 -103.5z" />
    <glyph glyph-name="aring" unicode="&#xe5;" horiz-adv-x="1652" 
d="M764 1499q764 0 764 -749.5t-164.5 -749.5t-169 559t-423.5 559t-419 -554t-171.5 -559t-176 744.5t759.5 749.5zM958 571.5q0 -190.5 -187.5 -185.5t-187.5 185.5t187.5 185.5t187.5 -185.5zM763 1817q163 -1 162 -151.5t-163 -150.5t-162 151.5t163 150.5zM709 1657
q0 -61 52.5 -61t52.5 61t-52.5 61t-52.5 -61z" />
    <glyph glyph-name="ccedilla" unicode="&#xe7;" horiz-adv-x="1418" 
d="M678 1499q669 -5 669 -190t-502.5 -190.5t-502.5 -367.5t502.5 -367.5t502.5 -190.5t-673.5 -185t-669 748t673.5 743zM921.5 -172.5q6.5 -178.5 -163.5 -197t-173 65t103.5 87.5t105 46t-108 38t-119.5 61t168 71.5t187.5 -172z" />
    <glyph glyph-name="eacute" unicode="&#xe9;" horiz-adv-x="1454" 
d="M1336 1317.5q5 -190.5 -494 -195.5t-499 -89t499 -89t494 -195.5t-499 -190.5t-494 -83.5t499 -89t494 -196t-669 -185.5t-664 749.5t664 749.5t669 -185.5zM716.5 1527.5q84.5 -49.5 164.5 93t-4.5 192t-164.5 -93t4.5 -192z" />
    <glyph glyph-name="egrave" unicode="&#xe8;" horiz-adv-x="1436" 
d="M1336 1317.5q5 -190.5 -494 -195.5t-499 -89t499 -89t494 -195.5t-499 -190.5t-494 -83.5t499 -89t494 -196t-669 -185.5t-664 749.5t664 749.5t669 -185.5zM571.5 1812.5q-82.5 -49.5 -4 -192t161 -93t4 192t-161 93z" />
    <glyph glyph-name="ecircumflex" unicode="&#xea;" horiz-adv-x="1409" 
d="M1333 1317.5q5 -190.5 -494 -195.5t-499 -89t499 -89t494 -195.5t-499 -190.5t-494 -83.5t499 -89t494 -196t-669 -185.5t-664 749.5t664 749.5t669 -185.5zM695 1855q179 0 191 -170.5t-71.5 -170.5t-83.5 106.5t-42 106.5t-42 -106.5t-65.5 -117t-65.5 170.5t179 181z
" />
    <glyph glyph-name="edieresis" unicode="&#xeb;" horiz-adv-x="1409" 
d="M1333 1317.5q5 -190.5 -494 -195.5t-499 -89t499 -89t494 -195.5t-499 -190.5t-494 -83.5t499 -89t494 -196t-669 -185.5t-664 749.5t664 749.5t669 -185.5zM599.5 1728q89.5 0 89.5 -96.5t-89.5 -96.5t-89.5 96.5t89.5 96.5zM824.5 1732q89.5 0 89.5 -96.5t-89.5 -96.5
t-89.5 96.5t89.5 96.5z" />
    <glyph glyph-name="iacute" unicode="&#xed;" horiz-adv-x="484" 
d="M456 564.5q0 -565.5 -230.5 -560.5t-230.5 560.5t230.5 560.5t230.5 -560.5zM193.5 1188.5q84.5 -49.5 164.5 93t-4.5 192t-164.5 -93t4.5 -192z" />
    <glyph glyph-name="igrave" unicode="&#xec;" horiz-adv-x="539" 
d="M464 564.5q0 -565.5 -230.5 -560.5t-230.5 560.5t230.5 560.5t230.5 -560.5zM86.5 1447.5q-82.5 -49.5 -4 -192t161 -93t4 192t-161 93z" />
    <glyph glyph-name="icircumflex" unicode="&#xee;" horiz-adv-x="569" 
d="M461 564.5q0 -565.5 -230.5 -560.5t-230.5 560.5t230.5 560.5t230.5 -560.5zM233.197 1490q143.198 0 152.798 -170.5t-57.1992 -170.5t-66.7988 106.5t-33.5996 106.5t-33.5996 -106.5t-52.3994 -117q-52.3984 -10.5 -52.3984 170.5t143.197 181z" />
    <glyph glyph-name="idieresis" unicode="&#xef;" horiz-adv-x="569" 
d="M461 564.5q0 -565.5 -230.5 -560.5t-230.5 560.5t230.5 560.5t230.5 -560.5zM127.5 1341q89.5 0 89.5 -96.5t-89.5 -96.5t-89.5 96.5t89.5 96.5zM352.5 1345q89.5 0 89.5 -96.5t-89.5 -96.5t-89.5 96.5t89.5 96.5z" />
    <glyph glyph-name="ntilde" unicode="&#xf1;" horiz-adv-x="1698" 
d="M810.5 1499q810.5 0 815.5 -745t-179.5 -745t-184.5 554.5t-444.5 554.5t-449 -559.5t-186.5 -554.5t-182 750t810.5 745zM851 1650q-222 -1 -222.5 -71.5t-74.5 -71t-76.5 101t220.5 103t223.5 73t73.5 71.5t75.5 -102.5t-219.5 -103.5z" />
    <glyph glyph-name="oacute" unicode="&#xf3;" horiz-adv-x="1670" 
d="M795.5 1494q792.5 -5 787.5 -749.5t-792.5 -744.5t-787.5 749.5t792.5 744.5zM358 724q0 -394 435 -394t435 394t-435 394t-435 -394zM783.5 1531.5q84.5 -49.5 164.5 93t-4.5 192t-164.5 -93t4.5 -192z" />
    <glyph glyph-name="ograve" unicode="&#xf2;" horiz-adv-x="1674" 
d="M795.5 1494q792.5 -5 787.5 -749.5t-792.5 -744.5t-787.5 749.5t792.5 744.5zM358 724q0 -394 435 -394t435 394t-435 394t-435 -394zM638.5 1816.5q-82.5 -49.5 -4 -192t161 -93t4 192t-161 93z" />
    <glyph glyph-name="ocircumflex" unicode="&#xf4;" horiz-adv-x="1678" 
d="M792.5 1494q792.5 -5 787.5 -749.5t-792.5 -744.5t-787.5 749.5t792.5 744.5zM355 724q0 -394 435 -394t435 394t-435 394t-435 -394zM775 1859q179 0 191 -170.5t-71.5 -170.5t-83.5 106.5t-42 106.5t-42 -106.5t-65.5 -117t-65.5 170.5t179 181z" />
    <glyph glyph-name="odieresis" unicode="&#xf6;" horiz-adv-x="1678" 
d="M792.5 1494q792.5 -5 787.5 -749.5t-792.5 -744.5t-787.5 749.5t792.5 744.5zM355 724q0 -394 435 -394t435 394t-435 394t-435 -394zM642.5 1723q89.5 0 89.5 -96.5t-89.5 -96.5t-89.5 96.5t89.5 96.5zM867.5 1727q89.5 0 89.5 -96.5t-89.5 -96.5t-89.5 96.5t89.5 96.5z
" />
    <glyph glyph-name="otilde" unicode="&#xf5;" horiz-adv-x="1678" 
d="M792.5 1494q792.5 -5 787.5 -749.5t-792.5 -744.5t-787.5 749.5t792.5 744.5zM355 724q0 -394 435 -394t435 394t-435 394t-435 -394zM800 1645q-222 -1 -222.5 -71.5t-74.5 -71t-76.5 101t220.5 103t223.5 73t73.5 71.5t75.5 -102.5t-219.5 -103.5z" />
    <glyph glyph-name="uacute" unicode="&#xfa;" horiz-adv-x="1573" 
d="M341.5 937q4.5 -562 407.5 -562t407.5 559.5t162.5 559.5t158 -747.5t-734.5 -742.5t-734.5 745t164.5 745t169 -557zM742.5 1515.5q84.5 -49.5 164.5 93t-4.5 192t-164.5 -93t4.5 -192z" />
    <glyph glyph-name="ugrave" unicode="&#xf9;" 
d="M322.5 937q4.5 -562 407.5 -562t407.5 559.5t162.5 559.5t158 -747.5t-734.5 -742.5t-734.5 745t164.5 745t169 -557zM586.5 1796.5q-82.5 -49.5 -4 -192t161 -93t4 192t-161 93z" />
    <glyph glyph-name="ucircumflex" unicode="&#xfb;" 
d="M333.5 937q4.5 -562 407.5 -562t407.5 559.5t162.5 559.5t158 -747.5t-734.5 -742.5t-734.5 745t164.5 745t169 -557zM765 1848q179 0 191 -170.5t-71.5 -170.5t-83.5 106.5t-42 106.5t-42 -106.5t-65.5 -117t-65.5 170.5t179 181z" />
    <glyph glyph-name="udieresis" unicode="&#xfc;" 
d="M333.5 937q4.5 -562 407.5 -562t407.5 559.5t162.5 559.5t158 -747.5t-734.5 -742.5t-734.5 745t164.5 745t169 -557zM620.5 1706q89.5 0 89.5 -96.5t-89.5 -96.5t-89.5 96.5t89.5 96.5zM845.5 1710q89.5 0 89.5 -96.5t-89.5 -96.5t-89.5 96.5t89.5 96.5z" />
    <glyph glyph-name="degree" unicode="&#xb0;" horiz-adv-x="559" 
d="M251 1494.5q251 -1.5 249 -228.5t-251 -227t-249 228.5t251 227zM167 1253q0 -92 81 -92t81 92t-81 92t-81 -92z" />
    <glyph glyph-name="germandbls" unicode="&#xdf;" horiz-adv-x="1494" 
d="M1397 771.5q0 -722.5 -382.5 -743.5t-382.5 181t200.5 202t200.5 85t-200.5 85t-200.5 201.5t200.5 201.5t200.5 74.5t-334.5 74.5t-334.5 -728t-182 -728t-182 908.5t698.5 908.5t698.5 -722.5z" />
    <glyph glyph-name="registered" unicode="&#xae;" horiz-adv-x="2000" 
d="M964 946.5q365 -2.5 365 -277.5t-81 -277.5t-44 -94t-54 -91.5t-128.5 91.5t-146.5 91.5t-109 -93t-83.5 -93t-83.5 373t365 370.5zM750 703q0 -89 199 -89t199 89t-199 89t-199 -89zM975.5 1494q975.5 -6 969.5 -935.5t-975.5 -929.5t-969.5 935.5t975.5 929.5z
M373 535.5q0 -592.5 586 -592.5t586 592.5t-586 592.5t-586 -592.5z" />
    <glyph glyph-name="copyright" unicode="&#xa9;" horiz-adv-x="2038" 
d="M956.5 923.5q334.5 -2.5 334.5 -95t-251.5 -95t-251.5 -183.5t251.5 -184t251.5 -95.5t-337 -92.5t-334.5 374t337 371.5zM975.5 1494q975.5 -6 969.5 -935.5t-975.5 -929.5t-969.5 935.5t975.5 929.5zM361 532q0 -597 609.5 -597t609.5 597t-609.5 597t-609.5 -597z" />
    <glyph glyph-name="trademark" unicode="&#x2122;" horiz-adv-x="2048" 
d="M558.034 1393q0 -67.125 -94.4062 -69.1875q-94.4053 -2.0625 -94.4053 -212.438t-81.4053 -210.375t-81.4053 210.375t-103.206 212.438t-103.206 69.1875t279.017 67.125q279.018 0 279.018 -67.125zM1595.66 1178.88q-1.60059 -281.25 -63.6045 -279.375
t-62.0039 211.125t-153.409 209.25t-153.409 -209.25t-62.8037 -211.125t-64.6045 209.25q-1.7998 211.125 -154.409 211.125t-152.609 -209.25t-64.4033 -209.25q-64.4043 0 -64.4043 279.375t498.631 279.375q498.63 0 497.03 -281.25z" />
    <glyph glyph-name="acute" unicode="&#xb4;" horiz-adv-x="315" 
d="M43.5 1179.5q84.5 -49.5 164.5 93t-4.5 192t-164.5 -93t4.5 -192z" />
    <glyph glyph-name="dieresis" unicode="&#xa8;" horiz-adv-x="461" 
d="M89.5 1490q89.5 0 89.5 -96.5t-89.5 -96.5t-89.5 96.5t89.5 96.5zM314.5 1494q89.5 0 89.5 -96.5t-89.5 -96.5t-89.5 96.5t89.5 96.5z" />
    <glyph glyph-name="AE" unicode="&#xc6;" horiz-adv-x="1902" 
d="M1826 1320.5q0 -173.5 -344 -195t-344 -97.5t344 -97.5t344 -184.5t-344 -184.5t-344 -108t344 -108.5t344 -184t-513 -162t-513 173t-281 173t-281 -173t-119 -173t-119 747.5t913 747.5t913 -173.5zM238 941q0 -184 281 -184t281 184t-281 184t-281 -184z" />
    <glyph glyph-name="AE" unicode="&#xe6;" horiz-adv-x="1902" 
d="M1826 1320.5q0 -173.5 -344 -195t-344 -97.5t344 -97.5t344 -184.5t-344 -184.5t-344 -108t344 -108.5t344 -184t-513 -162t-513 173t-281 173t-281 -173t-119 -173t-119 747.5t913 747.5t913 -173.5zM238 941q0 -184 281 -184t281 184t-281 184t-281 -184z" />
    <glyph glyph-name="Oslash" unicode="&#xd8;" horiz-adv-x="1593" 
d="M1364 1715q108 0 108 -854t-579 -854t-598.5 -132t-157 -132t-137.5 874t608 874t628 112t128 112zM334 800q0 -305 147 -305t147 305t-147 305t-147 -305zM942 627.5q0 -294.5 137 -294.5t137 294.5t-137 294.5t-137 -294.5z" />
    <glyph glyph-name="Oslash" unicode="&#xf8;" horiz-adv-x="1593" 
d="M1364 1715q108 0 108 -854t-579 -854t-598.5 -132t-157 -132t-137.5 874t608 874t628 112t128 112zM334 800q0 -305 147 -305t147 305t-147 305t-147 -305zM942 627.5q0 -294.5 137 -294.5t137 294.5t-137 294.5t-137 -294.5z" />
    <glyph glyph-name="plusminus" unicode="&#xb1;" horiz-adv-x="1116" 
d="M520 185q520 0 520 -90.5t-520 -90.5t-520 90.5t520 90.5zM572 1251q138 0 156.5 -169t165.5 -188.5t129 -178.5t-147 -159t-129 -149t-175 -149t-175 149t-147.5 149t-147.5 178.5t147.5 178.5t166 169t156.5 169z" />
    <glyph glyph-name="lessequal" unicode="&#x2264;" horiz-adv-x="1611" 
d="M937 757.5q-552 -10.5 -552 -203t552 -192.5t557 -183.5t-562.5 -183.5t-749.5 188.5t-182 381.5t195 386.5t744.5 193.5t549.5 -188.5t-552 -199zM764 -45q739 0 739 -116.5t-739 -116.5t-739 116.5t739 116.5z" />
    <glyph glyph-name="greaterequal" unicode="&#x2265;" horiz-adv-x="1611" 
d="M567 1145q553 0 749.5 -193.5t196.5 -386.5t-183 -381.5t-754.5 -188.5t-566.5 183.5t560.5 183.5t555.5 192.5t-555.5 203t-555.5 199t553 188.5zM744 -278q-744 0 -744 116.5t744 116.5t744 -116.5t-744 -116.5z" />
    <glyph glyph-name="glyph142" horiz-adv-x="1124" 
 />
    <glyph glyph-name="ordmasculine" unicode="&#xba;" horiz-adv-x="559" 
d="M251 1494.5q251 -1.5 249 -228.5t-251 -227t-249 228.5t251 227zM167 1253q0 -92 81 -92t81 92t-81 92t-81 -92z" />
    <glyph glyph-name="questiondown" unicode="&#xbf;" horiz-adv-x="1131" 
d="M34 475.5q0 -475.5 507 -475.5t507 188.5t-338 188.5t-338 287t-169 287t-169 -475.5zM202.5 1197q172.5 0 172.5 146t-172.5 146t-172.5 -146t172.5 -146z" />
    <glyph glyph-name="exclamdown" unicode="&#xa1;" horiz-adv-x="516" 
d="M215 1193q203 0 203 146t-203 146t-203 -146t203 -146zM226.5 -4q197.5 0 197.5 522t-197.5 522t-197.5 -522t197.5 -522z" />
    <glyph glyph-name="ellipsis" unicode="&#x2026;" horiz-adv-x="2048" 
d="M89.5 193q89.5 0 89.5 -96.5t-89.5 -96.5t-89.5 96.5t89.5 96.5zM771.5 193q89.5 0 89.5 -96.5t-89.5 -96.5t-89.5 96.5t89.5 96.5zM1455.5 193q89.5 0 89.5 -96.5t-89.5 -96.5t-89.5 96.5t89.5 96.5z" />
    <glyph glyph-name="Agrave" unicode="&#xc0;" horiz-adv-x="1754" 
d="M805 1494q805 0 810 -742.5t-178 -742.5t-183 185t-441.5 185t-446.5 -190t-185.5 -185t-180.5 747.5t805 742.5zM371 936.5q0 -177.5 441.5 -177.5t441.5 177.5t-441.5 177.5t-441.5 -177.5zM639.5 1816.5q-82.5 -49.5 -4 -192t161 -93t4 192t-161 93z" />
    <glyph glyph-name="Atilde" unicode="&#xc3;" horiz-adv-x="1754" 
d="M805 1494q805 0 810 -742.5t-178 -742.5t-183 185t-441.5 185t-446.5 -190t-185.5 -185t-180.5 747.5t805 742.5zM371 936.5q0 -177.5 441.5 -177.5t441.5 177.5t-441.5 177.5t-441.5 -177.5zM787 1632q-222 -1 -222.5 -71.5t-74.5 -71t-76.5 101t220.5 103t223.5 73
t73.5 71.5t75.5 -102.5t-219.5 -103.5z" />
    <glyph glyph-name="Otilde" unicode="&#xd5;" horiz-adv-x="1678" 
d="M792.5 1494q792.5 -5 787.5 -749.5t-792.5 -744.5t-787.5 749.5t792.5 744.5zM355 724q0 -394 435 -394t435 394t-435 394t-435 -394zM760 1632q-222 -1 -222.5 -71.5t-74.5 -71t-76.5 101t220.5 103t223.5 73t73.5 71.5t75.5 -102.5t-219.5 -103.5z" />
    <glyph glyph-name="OE" unicode="&#x152;" horiz-adv-x="1827" 
d="M875.5 1488.5q863.5 -10.5 857.5 -205.5t-321.5 -195t-315.5 -71.5t315.5 -71.5t315.5 -195.5t-315.5 -195.5t-315.5 -82t315.5 -82t315.5 -195t-863.5 -195t-857.5 749.5t869.5 739zM241 742q0 -468 315.5 -468t315.5 468t-315.5 468t-315.5 -468z" />
    <glyph glyph-name="OE" unicode="&#x153;" horiz-adv-x="1827" 
d="M875.5 1488.5q863.5 -10.5 857.5 -205.5t-321.5 -195t-315.5 -71.5t315.5 -71.5t315.5 -195.5t-315.5 -195.5t-315.5 -82t315.5 -82t315.5 -195t-863.5 -195t-857.5 749.5t869.5 739zM241 742q0 -468 315.5 -468t315.5 468t-315.5 468t-315.5 -468z" />
    <glyph glyph-name="endash" unicode="&#x2013;" horiz-adv-x="593" 
d="M264 185q260 0 260 -90.5t-260 -90.5t-260 90.5t260 90.5z" />
    <glyph glyph-name="emdash" unicode="&#x2014;" horiz-adv-x="1116" 
d="M520.968 185q519.968 0 519.968 -90.5t-519.968 -90.5t-519.968 90.5t519.968 90.5z" />
    <glyph glyph-name="quotedblleft" horiz-adv-x="616" 
d="M334 1464.5q-91 -49.5 -5 -192t177 -93t5 192t-177 93zM50 1464.5q-91 -49.5 -5 -192t177 -93t5 192t-177 93z" />
    <glyph glyph-name="quotedblright" horiz-adv-x="572" 
d="M43.5 1179.5q84.5 -49.5 164.5 93t-4.5 192t-164.5 -93t4.5 -192zM307.5 1179.5q84.5 -49.5 164.5 93t-4.5 192t-164.5 -93t4.5 -192z" />
    <glyph glyph-name="quoteleft" unicode="&#x2018;" horiz-adv-x="315" 
d="M41.5 1464.5q-82.5 -49.5 -4 -192t161 -93t4 192t-161 93z" />
    <glyph glyph-name="quoteright" unicode="&#x2019;" horiz-adv-x="315" 
d="M43.5 1179.5q84.5 -49.5 164.5 93t-4.5 192t-164.5 -93t4.5 -192z" />
    <glyph glyph-name="divide" unicode="&#xf7;" horiz-adv-x="1116" 
d="M524 334q520 0 520 -90.5t-520 -90.5t-520 90.5t520 90.5zM501.5 627q89.5 0 89.5 -96.5t-89.5 -96.5t-89.5 96.5t89.5 96.5zM497.5 58q89.5 0 89.5 -96.5t-89.5 -96.5t-89.5 96.5t89.5 96.5z" />
    <glyph glyph-name="ydieresis" unicode="&#xff;" horiz-adv-x="1783" 
d="M389 1128q0 -361 463 -361t468 366t189.5 366t184.5 -554t-294.5 -554t-299.5 -196t-212.5 -191t-207.5 196t-337.5 191t-340 554t192 549t194.5 -366zM733.5 1703q89.5 0 89.5 -96.5t-89.5 -96.5t-89.5 96.5t89.5 96.5zM958.5 1707q89.5 0 89.5 -96.5t-89.5 -96.5
t-89.5 96.5t89.5 96.5z" />
    <glyph glyph-name="Ydieresis" unicode="&#x178;" horiz-adv-x="1783" 
d="M389 1128q0 -361 463 -361t468 366t189.5 366t184.5 -554t-294.5 -554t-299.5 -196t-212.5 -191t-207.5 196t-337.5 191t-340 554t192 549t194.5 -366zM713.5 1688q89.5 0 89.5 -96.5t-89.5 -96.5t-89.5 96.5t89.5 96.5zM938.5 1692q89.5 0 89.5 -96.5t-89.5 -96.5
t-89.5 96.5t89.5 96.5z" />
    <glyph glyph-name="fraction" unicode="&#x2044;" horiz-adv-x="685" 
d="M352.5 1487q-235.5 0 -235.5 -550.5t-58.5 -550.5t-58.5 -193t224.5 -193t224.5 553.5t69.5 553.5t69.5 190t-235.5 190z" />
    <glyph glyph-name="fraction" unicode="&#x2215;" horiz-adv-x="685" 
d="M352.5 1487q-235.5 0 -235.5 -550.5t-58.5 -550.5t-58.5 -193t224.5 -193t224.5 553.5t69.5 553.5t69.5 190t-235.5 190z" />
    <glyph glyph-name="Euro" unicode="&#x20ac;" horiz-adv-x="1296" 
d="M761.5 1499q464.5 0 464.5 -155t-357 -155t-357 -57t357 -57t357 -154.5t-357 -154.5t-357 -16.5t357 -16.5t357 -154.5t-357 -154.5t-357 -65.5t357 -65.5t357 -146.5t-464.5 -146.5t-478 212t-147 212t-133.5 146.5t133.5 146.5t133.5 24.5t-133.5 24.5t-133.5 146.5
t133.5 146.5t147 220t478 220z" />
    <glyph glyph-name="guilsinglleft" unicode="&#x2039;" horiz-adv-x="1175" 
d="M683.5 992q-402.5 -14 -402.5 -265.5t402.5 -251.5t406.5 -240t-410 -240t-547 246.5t-133 499t142.5 505.5t543 253t400.5 -246.5t-402.5 -260.5z" />
    <glyph glyph-name="guilsinglright" unicode="&#x203a;" horiz-adv-x="1175" 
d="M413.5 501q402.5 15 401.5 267t-403.5 250.5t-407 238.5t409.5 241.5t547.5 -244.5t134.5 -498.5t-140.5 -506t-542 -254.5t-401.5 245t401.5 261z" />
    <glyph glyph-name="uniF001" unicode="&#xf001;" horiz-adv-x="2145" 
d="M724.5 1499q714.5 0 719.5 -189.5t-535.5 -195t-540.5 -88.5t540.5 -88t540.5 -189.5t-540.5 -190t-540.5 -278t-184 -272.5t-179 745.5t719.5 745.5zM2010 560.5q0 -565.5 -230.5 -560.5t-230.5 560.5t230.5 560.5t230.5 -560.5z" />
    <glyph glyph-name="uniF001" unicode="&#xfb01;" horiz-adv-x="2145" 
d="M724.5 1499q714.5 0 719.5 -189.5t-535.5 -195t-540.5 -88.5t540.5 -88t540.5 -189.5t-540.5 -190t-540.5 -278t-184 -272.5t-179 745.5t719.5 745.5zM2010 560.5q0 -565.5 -230.5 -560.5t-230.5 560.5t230.5 560.5t230.5 -560.5z" />
    <glyph glyph-name="uniF002" unicode="&#xf002;" horiz-adv-x="2859" 
d="M724.5 1499q714.5 0 719.5 -189.5t-535.5 -195t-540.5 -88.5t540.5 -88t540.5 -189.5t-540.5 -190t-540.5 -278t-184 -272.5t-179 745.5t719.5 745.5zM1737 1464q171 0 176 -554t417.5 -559t407.5 -193t-588.5 -188t-583.5 747t171 747z" />
    <glyph glyph-name="uniF002" unicode="&#xfb02;" horiz-adv-x="2859" 
d="M724.5 1499q714.5 0 719.5 -189.5t-535.5 -195t-540.5 -88.5t540.5 -88t540.5 -189.5t-540.5 -190t-540.5 -278t-184 -272.5t-179 745.5t719.5 745.5zM1737 1464q171 0 176 -554t417.5 -559t407.5 -193t-588.5 -188t-583.5 747t171 747z" />
    <glyph glyph-name="periodcentered" unicode="&#xb7;" horiz-adv-x="246" 
d="M89.5 593q89.5 0 89.5 -96.5t-89.5 -96.5t-89.5 96.5t89.5 96.5z" />
    <glyph glyph-name="periodcentered" unicode="&#x2219;" horiz-adv-x="246" 
d="M89.5 593q89.5 0 89.5 -96.5t-89.5 -96.5t-89.5 96.5t89.5 96.5z" />
    <glyph glyph-name="quotesinglbase" unicode="&#x201a;" horiz-adv-x="315" 
d="M47.5 -112.5q84.5 -49.5 164.5 93t-4.5 192t-164.5 -93t4.5 -192z" />
    <glyph glyph-name="quotedblbase" unicode="&#x201e;" horiz-adv-x="572" 
d="M51.5 -160.5q84.5 -49.5 164.5 93t-4.5 192t-164.5 -93t4.5 -192zM315.5 -160.5q84.5 -49.5 164.5 93t-4.5 192t-164.5 -93t4.5 -192z" />
    <glyph glyph-name="perthousand" unicode="&#x2030;" horiz-adv-x="2504" 
d="M317.02 1272.64q317.02 -2 315.02 -299.818q-2.00098 -297.818 -317.02 -297.818q-315.02 0 -315.02 299.818t317.02 297.818zM142.009 964.617q0 -157.609 174.011 -157.609t174.011 157.609q0 157.61 -174.011 157.61t-174.011 -157.61zM919.5 1483
q-235.5 0 -235.5 -550.5t-58.5 -550.5t-58.5 -193t224.5 -193t224.5 553.5t69.5 553.5t69.5 190t-235.5 190zM2097.02 591.637q317.02 -2 315.02 -299.818q-2.00098 -297.818 -317.02 -297.818q-315.02 0 -315.02 299.818t317.02 297.818zM1922.01 283.617
q0 -157.609 174.011 -157.609t174.011 157.609q0 157.61 -174.011 157.61t-174.011 -157.61zM1397.02 597.637q317.02 -2 315.02 -299.818q-2.00098 -297.818 -317.02 -297.818q-315.02 0 -315.02 299.818t317.02 297.818zM1222.01 289.617q0 -157.609 174.011 -157.609
t174.011 157.609q0 157.61 -174.011 157.61t-174.011 -157.61z" />
    <glyph glyph-name="dotlessi" unicode="&#x131;" horiz-adv-x="542" 
d="M461 564.5q0 -565.5 -230.5 -560.5t-230.5 560.5t230.5 560.5t230.5 -560.5z" />
    <glyph glyph-name="circumflex" unicode="&#x2c6;" horiz-adv-x="439" 
d="M209 1490q179 0 191 -170.5t-71.5 -170.5t-83.5 106.5t-42 106.5t-42 -106.5t-65.5 -117t-65.5 170.5t179 181z" />
    <glyph glyph-name="tilde" unicode="&#x2dc;" horiz-adv-x="642" 
d="M376 1288q-222 -1 -222.5 -71.5t-74.5 -71t-76.5 101t220.5 103t223.5 73t73.5 71.5t75.5 -102.5t-219.5 -103.5z" />
    <glyph glyph-name="uni02C9" unicode="&#x2c9;" horiz-adv-x="593" 
d="M276 1490q260 0 260 -90.5t-260 -90.5t-260 90.5t260 90.5z" />
    <glyph glyph-name="breve" unicode="&#x2d8;" horiz-adv-x="468" 
d="M195 1154q-179 0 -191 170.5t71.5 170.5t83.5 -106.5t42 -106.5t42 106.5t65.5 117t65.5 -170.5t-179 -181z" />
    <glyph glyph-name="dotaccent" unicode="&#x2d9;" horiz-adv-x="363" 
d="M163 1494q163 -1 162 -151.5t-163 -150.5t-162 151.5t163 150.5z" />
    <glyph glyph-name="ring" unicode="&#x2da;" horiz-adv-x="363" 
d="M163 1494q163 -1 162 -151.5t-163 -150.5t-162 151.5t163 150.5zM109 1334q0 -61 52.5 -61t52.5 61t-52.5 61t-52.5 -61z" />
    <glyph glyph-name="cedilla" unicode="&#xb8;" horiz-adv-x="439" 
d="M398.5 -180.5q6.5 -178.5 -163.5 -197t-173 65t103.5 87.5t105 46t-108 38t-119.5 61t168 71.5t187.5 -172z" />
    <glyph glyph-name="brokenbar" unicode="&#xa6;" horiz-adv-x="542" 
d="M461 189.496q0 -411.934 -230.5 -408.278t-230.5 408.278t230.5 408.278q230.5 3.6543 230.5 -408.278zM461 1092.5q0 -411.934 -230.5 -408.278t-230.5 408.278t230.5 408.278q230.5 3.6543 230.5 -408.278z" />
    <glyph glyph-name="Eth" unicode="&#xd0;" horiz-adv-x="1585" 
d="M833.5 1493q646.5 -1 646.5 -726t-664.5 -725t-664.5 228t-75 228t-75 166t75 166t76 62.5t172 62.5t172 -62.5t73.5 -62.5t72.5 -166t-72.5 -166t-72.5 -52t318.5 -52t318.5 353t-473.5 353t-473.5 197t646.5 196z" />
    <glyph glyph-name="Eth" unicode="&#xf0;" horiz-adv-x="1585" 
d="M833.5 1493q646.5 -1 646.5 -726t-664.5 -725t-664.5 228t-75 228t-75 166t75 166t76 62.5t172 62.5t172 -62.5t73.5 -62.5t72.5 -166t-72.5 -166t-72.5 -52t318.5 -52t318.5 353t-473.5 353t-473.5 197t646.5 196z" />
    <glyph glyph-name="Yacute" unicode="&#xdd;" horiz-adv-x="1783" 
d="M389 1128q0 -361 463 -361t468 366t189.5 366t184.5 -554t-294.5 -554t-299.5 -196t-212.5 -191t-207.5 196t-337.5 191t-340 554t192 549t194.5 -366zM782.5 1512.5q84.5 -49.5 164.5 93t-4.5 192t-164.5 -93t4.5 -192z" />
    <glyph glyph-name="Yacute" unicode="&#xfd;" horiz-adv-x="1783" 
d="M389 1128q0 -361 463 -361t468 366t189.5 366t184.5 -554t-294.5 -554t-299.5 -196t-212.5 -191t-207.5 196t-337.5 191t-340 554t192 549t194.5 -366zM782.5 1512.5q84.5 -49.5 164.5 93t-4.5 192t-164.5 -93t4.5 -192z" />
    <glyph glyph-name="Thorn" unicode="&#xde;" horiz-adv-x="1562" 
d="M311 1584.5q-2 -125.5 579 -125.5t581 -725t-581 -725t-581 -149t-154.5 -149t-152.5 999.5t156.5 999.5t152.5 -125.5zM345 703.5q0 -377.5 408.5 -377.5t408.5 377.5t-408.5 377.5t-408.5 -377.5z" />
    <glyph glyph-name="Thorn" unicode="&#xfe;" horiz-adv-x="1562" 
d="M311 1584.5q-2 -125.5 579 -125.5t581 -725t-581 -725t-581 -149t-154.5 -149t-152.5 999.5t156.5 999.5t152.5 -125.5zM345 703.5q0 -377.5 408.5 -377.5t408.5 377.5t-408.5 377.5t-408.5 -377.5z" />
    <glyph glyph-name="minus" unicode="&#x2212;" horiz-adv-x="593" 
d="M264 581q260 0 260 -90.5t-260 -90.5t-260 90.5t260 90.5z" />
    <glyph glyph-name="multiply" unicode="&#xd7;" horiz-adv-x="759" 
d="M111 725q111 -2 157.5 -205t-111 -138t-157.5 205t111 138zM692 581.5q-3 -141.5 -43 -176t-111 -80t-195 -185.5t-232 -140t-108 141t109.5 141t142.5 44.5t122.5 81.5t89.5 176t114 139t111 -141.5zM622 4.5q-108 -22.5 -204 163t73.5 158t204 -163t-73.5 -158z" />
    <glyph glyph-name="uni00B9" unicode="&#xb9;" horiz-adv-x="393" 
d="M299.661 1038.59q0 -414.69 -149.83 -411.116q-149.831 3.5752 -149.831 411.116t149.831 411.116q149.83 3.57422 149.83 -411.116z" />
    <glyph glyph-name="uni00B2" unicode="&#xb2;" horiz-adv-x="1341" 
d="M754.679 1142.26q0 -304.418 260.334 -307.168q260.335 -2.75 260.335 -104.223t-374.414 -101.473t-374.414 305.793t-263.26 308.543t-263.26 102.848t377.339 100.098q377.34 0 377.34 -304.418z" />
    <glyph glyph-name="uni00B3" unicode="&#xb3;" horiz-adv-x="946" 
d="M3.25 729.223q-3.25 104.772 321.112 107.522t324.362 48.9492t-324.362 48.9492q-324.362 2.74902 -321.112 107.522q3.25 104.772 324.362 104.772t321.112 45.9238t-324.362 48.9492q-324.362 3.02441 -321.112 107.798q3.25 104.772 434.866 102.022
t431.616 -412.216t-431.616 -412.216t-434.866 102.022z" />
    <glyph glyph-name="onehalf" unicode="&#xbd;" horiz-adv-x="2043" 
d="M299.661 1038.59q0 -414.69 -149.83 -411.116q-149.831 3.5752 -149.831 411.116t149.831 411.116q149.83 3.57422 149.83 -411.116zM589.5 1491q-235.5 0 -235.5 -550.5t-58.5 -550.5t-58.5 -193t224.5 -193t224.5 553.5t69.5 553.5t69.5 190t-235.5 190z
M1474.68 542.264q0 -304.418 260.334 -307.168q260.335 -2.75 260.335 -104.223t-374.414 -101.473t-374.414 305.793t-263.26 308.543t-263.26 102.848t377.339 100.098q377.34 0 377.34 -304.418z" />
    <glyph glyph-name="onequarter" unicode="&#xbc;" horiz-adv-x="1813" 
d="M299.661 1038.59q0 -414.69 -149.83 -411.116q-149.831 3.5752 -149.831 411.116t149.831 411.116q149.83 3.57422 149.83 -411.116zM613.5 1487q-235.5 0 -235.5 -550.5t-58.5 -550.5t-58.5 -193t224.5 -193t224.5 553.5t69.5 553.5t69.5 190t-235.5 190z
M1647.66 821.682q-110.83 0 -110.83 -199.37q0 -199.371 -268.46 -199.371t-268.46 200.195q0 200.196 -112.454 201.021q-112.454 0.825195 -112.454 -304.143q0 -304.969 491.743 -304.969q491.744 0 491.744 303.318t-110.829 303.318zM1512.78 109.173
q0 -109.173 122.205 -109.173q122.204 0 122.204 109.173q0 109.172 -122.204 109.172q-122.205 0 -122.205 -109.172z" />
    <glyph glyph-name="threequarters" unicode="&#xbe;" horiz-adv-x="2383" 
d="M3.25 729.223q-3.25 104.772 321.112 107.522t324.362 48.9492t-324.362 48.9492q-324.362 2.74902 -321.112 107.522q3.25 104.772 324.362 104.772t321.112 45.9238t-324.362 48.9492q-324.362 3.02441 -321.112 107.798q3.25 104.772 434.866 102.022
t431.616 -412.216t-431.616 -412.216t-434.866 102.022zM1149.5 1487q-235.5 0 -235.5 -550.5t-58.5 -550.5t-58.5 -193t224.5 -193t224.5 553.5t69.5 553.5t69.5 190t-235.5 190zM2200.66 821.682q-110.83 0 -110.83 -199.37q0 -199.371 -268.46 -199.371t-268.46 200.195
q0 200.196 -112.454 201.021q-112.454 0.825195 -112.454 -304.143q0 -304.969 491.743 -304.969q491.744 0 491.744 303.318t-110.829 303.318zM2065.78 109.173q0 -109.173 122.205 -109.173q122.204 0 122.204 109.173q0 109.172 -122.204 109.172
q-122.205 0 -122.205 -109.172z" />
    <glyph glyph-name="franc" unicode="&#x20a3;" horiz-adv-x="3029" 
d="M724.5 1499q714.5 0 719.5 -189.5t-535.5 -195t-540.5 -88.5t540.5 -88t540.5 -189.5t-540.5 -190t-540.5 -278t-184 -272.5t-179 745.5t719.5 745.5zM2251 1494q730 -5 730 -554.5t-162.5 -554.5t-88 -188.5t-108 -183.5t-257 183.5t-292.5 183.5t-218 -186t-167 -186
t-167 745.5t730 740.5zM1855 939q0 -178 398 -178t398 178t-398 178t-398 -178z" />
    <glyph glyph-name="afii00208" unicode="&#x2015;" horiz-adv-x="2048" 
d="M781.451 185q779.952 0 779.952 -90.5t-779.952 -90.5q-779.951 0 -779.951 90.5t779.951 90.5z" />
    <glyph glyph-name="underscoredbl" unicode="&#x2017;" horiz-adv-x="1194" 
d="M602 -142q635 0 635 -90.5t-635 -90.5t-635 90.5t635 90.5zM602 58q635 0 635 -90.5t-635 -90.5t-635 90.5t635 90.5z" />
    <glyph glyph-name="quotereversed" unicode="&#x201b;" horiz-adv-x="455" 
d="M244.5 1179.5q-84.5 -49.5 -164.5 93t4.5 192t164.5 -93t-4.5 -192z" />
    <glyph glyph-name="minute" unicode="&#x2032;" horiz-adv-x="315" 
d="M43.5 1179.5q84.5 -49.5 164.5 93t-4.5 192t-164.5 -93t4.5 -192z" />
    <glyph glyph-name="second" unicode="&#x2033;" horiz-adv-x="725" 
d="M84.5 1179.5q84.5 -49.5 164.5 93t-4.5 192t-164.5 -93t4.5 -192zM409.5 1179.5q84.5 -49.5 164.5 93t-4.5 192t-164.5 -93t4.5 -192z" />
    <glyph glyph-name="exclamdbl" unicode="&#x203c;" horiz-adv-x="1024" 
d="M209 294q-203 0 -203 -146t203 -146t203 146t-203 146zM197.5 1491q-197.5 0 -197.5 -522t197.5 -522t197.5 522t-197.5 522zM634 294q-203 0 -203 -146t203 -146t203 146t-203 146zM622.5 1491q-197.5 0 -197.5 -522t197.5 -522t197.5 522t-197.5 522z" />
    <glyph glyph-name="uni203E" unicode="&#x203e;" horiz-adv-x="1194" 
d="M602 2156q635 0 635 -90.5t-635 -90.5t-635 90.5t635 90.5z" />
    <glyph glyph-name="uni207F" unicode="&#x207f;" horiz-adv-x="747" 
d="M526.845 1449.43q526.845 0 530.095 -409.741q3.25 -409.74 -116.679 -409.74q-119.93 0 -119.93 304.968q0 304.969 -288.937 304.969q-288.936 0 -291.86 -307.719q-2.9248 -307.718 -121.229 -304.968t-118.305 412.49q0 409.741 526.845 409.741z" />
    <glyph glyph-name="peseta" unicode="&#x20a7;" horiz-adv-x="3606" 
d="M594.391 1195.18q594.392 0 594.392 -446.393q0 -446.394 -457.594 -446.394q-457.593 0 -457.593 -147.998q0 -147.997 -136.798 -147.997t-136.798 594.391t594.391 594.391zM273.596 749.188q0 -141.998 325.995 -141.998t325.995 141.998t-325.995 141.998
t-325.995 -141.998zM2289.98 1051.98q0 -143.198 -188.798 -147.599q-188.797 -4.39941 -188.797 -453.192t-162.798 -448.793q-162.797 0 -162.797 448.793t-206.397 453.192q-206.396 4.40039 -206.396 147.599q0 143.197 557.991 143.197q557.992 0 557.992 -143.197z
M3534.18 1057.38q-4 -150.798 -323.595 -150.798t-319.595 -445.593t-461.993 -445.593t-457.993 152.797q4 152.798 313.995 152.798t309.995 443.594q0 443.593 471.593 443.593t467.593 -150.798z" />
    <glyph glyph-name="afii61248" unicode="&#x2105;" horiz-adv-x="2723" 
d="M508.5 1849.25q501.75 -3.75 501.75 -142.5t-376.875 -142.875t-376.875 -275.625t376.875 -275.625t376.875 -142.875t-505.125 -138.75t-501.75 561t505.125 557.25zM1273.5 1487q-235.5 0 -235.5 -550.5t-58.5 -550.5t-58.5 -193t224.5 -193t224.5 553.5t69.5 553.5
t69.5 190t-235.5 190zM2054.38 1115.5q594.375 -3.75 590.625 -562.125t-594.375 -558.375t-590.625 562.125t594.375 558.375zM1726.25 538q0 -295.5 326.25 -295.5t326.25 295.5t-326.25 295.5t-326.25 -295.5z" />
    <glyph glyph-name="afii61352" unicode="&#x2116;" horiz-adv-x="2197" 
d="M810.5 1499q810.5 0 815.5 -745t-179.5 -745t-184.5 554.5t-444.5 554.5t-449 -559.5t-186.5 -554.5t-182 750t810.5 745zM1868 1482.5q251 -1.5 249 -228.5t-251 -227t-249 228.5t251 227zM1784 1241q0 -92 81 -92t81 92t-81 92t-81 -92z" />
    <glyph glyph-name="estimated" unicode="&#x212e;" horiz-adv-x="997" 
d="M0.5 500.5q0.5 501.5 458.5 500.5t458 -303.5t-339 -324t-339 -73t338.5 -67t338.5 -125.5t-458 -109.5t-457.5 502zM678.5 691q0.5 59 -219.5 59.5t-220 -58.5t219.5 -59.5t220 58.5z" />
    <glyph glyph-name="oneeighth" unicode="&#x215b;" horiz-adv-x="1754" 
d="M299.661 1038.59q0 -414.69 -149.83 -411.116q-149.831 3.5752 -149.831 411.116t149.831 411.116q149.83 3.57422 149.83 -411.116zM605.5 1492q-235.5 0 -235.5 -550.5t-58.5 -550.5t-58.5 -193t224.5 -193t224.5 553.5t69.5 553.5t69.5 190t-235.5 190z
M1205.22 819.432q456.968 -2.75 454.043 -413.591q-2.92578 -410.841 -458.593 -410.841t-454.042 413.591t458.592 410.841zM982.909 561.763q0 -45.9238 223.934 -45.9238q223.933 0 223.933 45.9238t-223.933 45.9238q-223.934 0 -223.934 -45.9238zM982.909 255.419
q0 -45.9238 223.934 -45.9238q223.933 0 223.933 45.9238t-223.933 45.9238q-223.934 0 -223.934 -45.9238z" />
    <glyph glyph-name="threeeighths" unicode="&#x215c;" horiz-adv-x="2255" 
d="M3.25 729.223q-3.25 104.772 321.112 107.522t324.362 48.9492t-324.362 48.9492q-324.362 2.74902 -321.112 107.522q3.25 104.772 324.362 104.772t321.112 45.9238t-324.362 48.9492q-324.362 3.02441 -321.112 107.798q3.25 104.772 434.866 102.022
t431.616 -412.216t-431.616 -412.216t-434.866 102.022zM1141.5 1487q-235.5 0 -235.5 -550.5t-58.5 -550.5t-58.5 -193t224.5 -193t224.5 553.5t69.5 553.5t69.5 190t-235.5 190zM1746.22 832.432q456.968 -2.75 454.043 -413.591q-2.92578 -410.841 -458.593 -410.841
t-454.042 413.591t458.592 410.841zM1523.91 574.763q0 -45.9238 223.934 -45.9238q223.933 0 223.933 45.9238t-223.933 45.9238q-223.934 0 -223.934 -45.9238zM1523.91 268.419q0 -45.9238 223.934 -45.9238q223.933 0 223.933 45.9238t-223.933 45.9238
q-223.934 0 -223.934 -45.9238z" />
    <glyph glyph-name="fiveeighths" unicode="&#x215d;" horiz-adv-x="2680" 
d="M1273.4 1345.76q-3.25 -103.673 -262.935 -103.673t-259.685 -306.343t-375.39 -306.343q-375.389 0 -372.139 105.047q3.25 105.048 255.135 105.048t251.885 304.969q0 304.968 383.189 304.968t379.938 -103.673zM1485.5 1483q-235.5 0 -235.5 -550.5t-58.5 -550.5
t-58.5 -193t224.5 -193t224.5 553.5t69.5 553.5t69.5 190t-235.5 190zM2137.22 824.432q456.968 -2.75 454.043 -413.591q-2.92578 -410.841 -458.593 -410.841t-454.042 413.591t458.592 410.841zM1914.91 566.763q0 -45.9238 223.934 -45.9238q223.933 0 223.933 45.9238
t-223.933 45.9238q-223.934 0 -223.934 -45.9238zM1914.91 260.419q0 -45.9238 223.934 -45.9238q223.933 0 223.933 45.9238t-223.933 45.9238q-223.934 0 -223.934 -45.9238z" />
    <glyph glyph-name="seveneighths" unicode="&#x215e;" horiz-adv-x="2213" 
d="M735.828 1036.94q0 411.94 -367.914 411.94t-367.914 -103.948q0 -103.947 245.06 -103.947q245.059 0 245.059 -307.993t122.854 -307.993q122.855 0 122.855 411.941zM1077.5 1487q-235.5 0 -235.5 -550.5t-58.5 -550.5t-58.5 -193t224.5 -193t224.5 553.5t69.5 553.5
t69.5 190t-235.5 190zM1698.22 824.432q456.968 -2.75 454.043 -413.591q-2.92578 -410.841 -458.593 -410.841t-454.042 413.591t458.592 410.841zM1475.91 566.763q0 -45.9238 223.934 -45.9238q223.933 0 223.933 45.9238t-223.933 45.9238q-223.934 0 -223.934 -45.9238
zM1475.91 260.419q0 -45.9238 223.934 -45.9238q223.933 0 223.933 45.9238t-223.933 45.9238q-223.934 0 -223.934 -45.9238z" />
    <glyph glyph-name="Igrave" unicode="&#xcc;" horiz-adv-x="542" 
d="M461 752q0 -754 -230.5 -747.5t-230.5 747.5t230.5 747.5t230.5 -747.5zM107.5 1815.5q-82.5 -49.5 -4 -192t161 -93t4 192t-161 93z" />
    <glyph glyph-name="Iacute" unicode="&#xcd;" horiz-adv-x="542" 
d="M461 752q0 -754 -230.5 -747.5t-230.5 747.5t230.5 747.5t230.5 -747.5zM210.5 1535.5q84.5 -49.5 164.5 93t-4.5 192t-164.5 -93t4.5 -192z" />
    <glyph glyph-name="Icircumflex" unicode="&#xce;" horiz-adv-x="542" 
d="M461 752q0 -754 -230.5 -747.5t-230.5 747.5t230.5 747.5t230.5 -747.5zM234 1839q179 0 191 -170.5t-71.5 -170.5t-83.5 106.5t-42 106.5t-42 -106.5t-65.5 -117t-65.5 170.5t179 181z" />
    <glyph glyph-name="Idieresis" unicode="&#xcf;" horiz-adv-x="542" 
d="M461 752q0 -754 -230.5 -747.5t-230.5 747.5t230.5 747.5t230.5 -747.5zM132.5 1726q89.5 0 89.5 -96.5t-89.5 -96.5t-89.5 96.5t89.5 96.5zM357.5 1730q89.5 0 89.5 -96.5t-89.5 -96.5t-89.5 96.5t89.5 96.5z" />
    <glyph glyph-name="ordfeminine" unicode="&#xaa;" horiz-adv-x="771" 
d="M698.5 1138q-0.5 -368 -332.5 -367t-332 223t246 237.5t246 53.5t-245.5 49.5t-245.5 92t332 80t331.5 -368.5zM207 998.5q0 -43.5 159.5 -44t159.5 43t-159.5 44t-159.5 -43z" />
    <glyph glyph-name="Ucircumflex" unicode="&#xdb;" 
d="M333.5 937q4.5 -562 407.5 -562t407.5 559.5t162.5 559.5t158 -747.5t-734.5 -742.5t-734.5 745t164.5 745t169 -557zM745 1848q179 0 191 -170.5t-71.5 -170.5t-83.5 106.5t-42 106.5t-42 -106.5t-65.5 -117t-65.5 170.5t179 181z" />
    <glyph glyph-name="Uacute" unicode="&#xda;" 
d="M333.5 937q4.5 -562 407.5 -562t407.5 559.5t162.5 559.5t158 -747.5t-734.5 -742.5t-734.5 745t164.5 745t169 -557zM684.5 1512.5q84.5 -49.5 164.5 93t-4.5 192t-164.5 -93t4.5 -192z" />
    <glyph glyph-name="Ugrave" unicode="&#xd9;" 
d="M333.5 937q4.5 -562 407.5 -562t407.5 559.5t162.5 559.5t158 -747.5t-734.5 -742.5t-734.5 745t164.5 745t169 -557zM642.5 1801.5q-82.5 -49.5 -4 -192t161 -93t4 192t-161 93z" />
    <glyph glyph-name="Ocircumflex" unicode="&#xd4;" horiz-adv-x="1678" 
d="M792.5 1494q792.5 -5 787.5 -749.5t-792.5 -744.5t-787.5 749.5t792.5 744.5zM355 724q0 -394 435 -394t435 394t-435 394t-435 -394zM779 1839q179 0 191 -170.5t-71.5 -170.5t-83.5 106.5t-42 106.5t-42 -106.5t-65.5 -117t-65.5 170.5t179 181z" />
    <glyph glyph-name="Oacute" unicode="&#xd3;" horiz-adv-x="1678" 
d="M792.5 1494q792.5 -5 787.5 -749.5t-792.5 -744.5t-787.5 749.5t792.5 744.5zM355 724q0 -394 435 -394t435 394t-435 394t-435 -394zM722.5 1516.5q84.5 -49.5 164.5 93t-4.5 192t-164.5 -93t4.5 -192z" />
    <glyph glyph-name="Ograve" unicode="&#xd2;" horiz-adv-x="1678" 
d="M792.5 1494q792.5 -5 787.5 -749.5t-792.5 -744.5t-787.5 749.5t792.5 744.5zM355 724q0 -394 435 -394t435 394t-435 394t-435 -394zM655.5 1810.5q-82.5 -49.5 -4 -192t161 -93t4 192t-161 93z" />
    <glyph glyph-name="Edieresis" unicode="&#xcb;" horiz-adv-x="1409" 
d="M1333 1317.5q5 -190.5 -494 -195.5t-499 -89t499 -89t494 -195.5t-499 -190.5t-494 -83.5t499 -89t494 -196t-669 -185.5t-664 749.5t664 749.5t669 -185.5zM574.5 1721q89.5 0 89.5 -96.5t-89.5 -96.5t-89.5 96.5t89.5 96.5zM799.5 1725q89.5 0 89.5 -96.5t-89.5 -96.5
t-89.5 96.5t89.5 96.5z" />
    <glyph glyph-name="Ecircumflex" unicode="&#xca;" horiz-adv-x="1409" 
d="M1333 1317.5q5 -190.5 -494 -195.5t-499 -89t499 -89t494 -195.5t-499 -190.5t-494 -83.5t499 -89t494 -196t-669 -185.5t-664 749.5t664 749.5t669 -185.5zM713 1848q179 0 191 -170.5t-71.5 -170.5t-83.5 106.5t-42 106.5t-42 -106.5t-65.5 -117t-65.5 170.5t179 181z
" />
    <glyph glyph-name="Egrave" unicode="&#xc8;" horiz-adv-x="1409" 
d="M1333 1317.5q5 -190.5 -494 -195.5t-499 -89t499 -89t494 -195.5t-499 -190.5t-494 -83.5t499 -89t494 -196t-669 -185.5t-664 749.5t664 749.5t669 -185.5zM621.5 1806.5q-82.5 -49.5 -4 -192t161 -93t4 192t-161 93z" />
    <glyph glyph-name="Acircumflex" unicode="&#xc2;" horiz-adv-x="1754" 
d="M805 1494q805 0 810 -742.5t-178 -742.5t-183 185t-441.5 185t-446.5 -190t-185.5 -185t-180.5 747.5t805 742.5zM371 936.5q0 -177.5 441.5 -177.5t441.5 177.5t-441.5 177.5t-441.5 -177.5zM783 1839q179 0 191 -170.5t-71.5 -170.5t-83.5 106.5t-42 106.5t-42 -106.5
t-65.5 -117t-65.5 170.5t179 181z" />
    <glyph glyph-name="Aacute" unicode="&#xc1;" horiz-adv-x="1754" 
d="M805 1494q805 0 810 -742.5t-178 -742.5t-183 185t-441.5 185t-446.5 -190t-185.5 -185t-180.5 747.5t805 742.5zM371 936.5q0 -177.5 441.5 -177.5t441.5 177.5t-441.5 177.5t-441.5 -177.5zM741.5 1521.5q84.5 -49.5 164.5 93t-4.5 192t-164.5 -93t4.5 -192z" />
  </font>
</defs>
</svg>
