<?xml version="1.0" standalone="no"?>
<!DOCTYPE svg PUBLIC "-//W3C//DTD SVG 1.1//EN" "http://www.w3.org/Graphics/SVG/1.1/DTD/svg11.dtd" >
<svg>
<metadata>
Created by FontForge 20090914 at Fri Feb 24 05:17:14 2012
 By root
No Running In The Halls&#194;&#169; UrbanTee &#60;2008&#62;. All Rights Reserved
</metadata>
<defs>
<font id="NoRunningInTheHalls" horiz-adv-x="1139" >
  <font-face 
    font-family="No Running In The Halls"
    font-weight="400"
    font-stretch="normal"
    units-per-em="2048"
    panose-1="2 0 0 0 0 0 0 0 0 0"
    ascent="1638"
    descent="-410"
    x-height="1010"
    cap-height="947"
    bbox="-108 -255 4630 1280"
    underline-thickness="150"
    underline-position="-142"
    unicode-range="U+0020-U+F005"
  />
<missing-glyph horiz-adv-x="1536" 
d="M256 0v1280h1024v-1280h-1024zM288 32h960v1216h-960v-1216z" />
    <glyph glyph-name=".notdef" horiz-adv-x="1536" 
d="M256 0v1280h1024v-1280h-1024zM288 32h960v1216h-960v-1216z" />
    <glyph glyph-name=".null" horiz-adv-x="0" 
 />
    <glyph glyph-name="nonmarkingreturn" horiz-adv-x="569" 
 />
    <glyph glyph-name="space" unicode=" " horiz-adv-x="569" 
 />
    <glyph glyph-name="space" unicode="&#xa0;" horiz-adv-x="569" 
 />
    <glyph glyph-name="exclam" unicode="!" horiz-adv-x="380" 
d="M21 1003h6q41 -28 41 -100l35 -112h6v171q4 35 18 35h17q12 0 12 -23h18l35 23h24v-18l-6 -58l53 47l6 -6v-6h-6l6 -6v-6q-31 -39 -47 -153l17 -195v-35q65 -155 65 -183q-7 -47 -41 -47v-29l-18 -18h-6q-21 0 -35 94q-31 31 -47 148q-41 120 -124 288q-47 145 -47 177z
M262 196h18q59 -34 59 -65v-47l-6 -6l29 -41v-12l-17 -18l-36 6h-6q0 -25 -35 -47h-12l-29 35v59l-12 18v29q0 59 47 89z" />
    <glyph glyph-name="quotedbl" unicode="&#x22;" horiz-adv-x="727" 
 />
    <glyph glyph-name="numbersign" unicode="#" horiz-adv-x="1006" 
d="M659 980l7 -7v-28l-20 -29l7 -7v-14q-15 0 -26 -207v-8l13 -14l71 7l45 -7l7 7h6l20 -7l123 22h13l13 -15v-7q0 -14 -39 -14q0 -11 26 -22l65 15l7 -7v-15q0 -28 -273 -35l-91 -29l7 -71v-22l233 14q195 -10 195 -42q0 -20 -104 -29q0 -27 -279 -50l-39 -14l7 -7v-8
l13 -214h-7l7 -7v-71l-39 -43q-13 0 -13 64q-28 0 -39 221h-13v-7l-13 -128l13 -122q-10 -28 -20 -28h-6l-20 21v157l7 29l-7 7l13 100v21l7 8v7l-7 7h-6l-104 -29l26 -114l-13 -71l26 -100q0 -40 -39 -50v-29h-20l-52 50l-38 121l-13 136h6l-13 22l-19 -8v8
q-61 -17 -78 -50l-39 -15l-13 22v14l13 21v15q-13 0 -85 -72h-26l-13 15l78 85q144 86 208 86l13 86h-7l-149 -43l-39 7l-52 -29l-32 22q0 -12 -46 -29v-7h26v-21l-77 -15h-7l-13 15v21q23 39 149 93q16 21 111 71l142 50v165l13 14l20 -14h6q0 68 65 135h20l13 -14l-46 -78
l7 -8h6l20 15h6l13 -15q-58 -136 -58 -185h6l59 14h32v21l-6 65q8 133 39 143h13l13 -15v-7q-16 0 -26 -136v-35h6q0 50 13 50l-6 7q33 228 97 228zM419 609v-7h19v7h-19zM419 523v-71l-7 -7v-7l7 -8h13l52 15h45v21l7 43l-13 50zM367 159v-100h6v100h-6z" />
    <glyph glyph-name="dollar" unicode="$" 
 />
    <glyph glyph-name="percent" unicode="%" horiz-adv-x="1821" 
 />
    <glyph glyph-name="ampersand" unicode="&#x26;" horiz-adv-x="948" 
d="M743 1054h17q68 0 110 -173l5 -6v-11l-5 -6q27 -41 40 -207q10 0 17 -35q0 -45 -52 -173q-52 -213 -103 -213q-174 -207 -288 -207q-68 -17 -167 -23q-107 0 -156 109h-11q-28 -23 -46 -23l-6 6v6l11 11v6l-11 12l-81 -18h-17v12q15 52 75 52q0 8 46 23q-12 13 -23 138
l6 17q-64 54 -64 104v12q0 95 139 218q27 102 144 179q72 72 230 138zM737 1025v-11l69 -46h6v5q-22 52 -75 52zM634 933v-6q16 -18 34 -103v-52q-17 -168 -69 -271q-42 -92 -86 -92h-12q-86 71 -86 190v58l5 5l-5 6v6q0 79 46 173q-128 -83 -202 -225v-6q35 -18 35 -63
q-20 -191 -46 -225h-18q-17 6 -17 35h-17l23 -121h23l213 69l75 29q23 -9 23 -17v-6q-71 -92 -121 -92q-155 -35 -179 -58v-6q16 -45 64 -69l75 -23l115 46q45 0 57 35q48 0 173 213l110 161l11 52l-6 132l6 18q-4 65 -69 149q-29 87 -75 87q-80 -8 -80 -29zM524 939v-6h17
v12zM311 795v-12l109 92q21 0 70 41h-12q-82 -42 -167 -121zM536 708v-28q13 0 34 98v23q-11 0 -34 -93zM253 536v-12h6v12h-6zM495 524v-11h12v11h-12zM75 495l-6 -5v-6q4 -81 29 -81q-8 92 -23 92zM138 467v-6l6 -18h6v24h-12zM680 202v-6h11q133 173 133 219v5zM144 317
l17 -104h6l12 12v5q-23 35 -23 98zM196 132q22 -44 46 -57v6l-29 51h-17zM259 63v-5h12v5h-12z" />
    <glyph glyph-name="quotesingle" unicode="'" horiz-adv-x="391" 
 />
    <glyph glyph-name="parenleft" unicode="(" horiz-adv-x="511" 
d="M286 1027h8l44 -37l73 22q74 -5 74 -22v-7q0 -15 -96 -22q0 -15 -36 -15l-8 -7v-7l22 -8q0 -18 -88 -73q-37 -61 -110 -463l22 -66l-7 -29q61 -191 102 -191h22l81 29h22l15 -15v-7l-51 -29q0 -37 -74 -37l30 -37l36 7h37l15 -14l-30 -37h-51q-167 0 -279 198
q-32 57 -52 235l8 8v7l-15 88v103q17 79 103 198q0 26 73 125q79 93 110 103zM162 777l-37 -95v-15h7q0 29 44 110h-14zM88 491l7 -8v-7l-14 -51q19 -56 37 -59h7l-15 125v81q-16 0 -22 -81zM103 315q7 -45 22 -45v30l-15 15h-7zM132 168l15 -15v15h-15zM191 72v-7l15 -15h7
v7l-15 15h-7z" />
    <glyph glyph-name="parenright" unicode=")" horiz-adv-x="318" 
d="M75 996q21 -43 44 -56h6l-6 28l6 6h5q21 0 84 -89l44 -61l28 -345h-6l6 -5l-6 -67v-33q-29 -217 -55 -245l-56 -105l-27 -89h-12l-11 39l6 17h-11l-22 -11q-26 9 -39 33l5 5h6l33 -11l6 6v5l-23 17l-5 6v5l5 28l-27 -6l-39 34l11 11l28 -17l44 17q78 67 78 111
q8 0 28 150l-6 33v45l6 16l-6 28v83q-11 91 -44 184l-67 77l-17 -5v11l6 6v5l-56 39l-16 -6l-17 23v5l17 17q39 0 111 -61v5l-61 73l-11 22v5q5 17 33 17zM92 74v-11l27 -17q23 0 28 50h-11q-27 -22 -44 -22z" />
    <glyph glyph-name="asterisk" unicode="*" horiz-adv-x="521" 
d="M180 512q19 0 80 -80h4q7 0 16 44l20 16h4q12 -4 12 -24q-12 -2 -24 -52v-12l36 -44q61 69 76 72h8l16 -16v-4q-16 -14 -16 -36l-16 -16q11 -40 20 -40q44 8 68 24h4v-4q0 -14 -28 -20q0 -15 -40 -40v-4l8 -8l4 4q156 -11 156 -24v-4l-8 -8l-120 8h-16l-20 4l-4 -4v-32
l-16 -72q43 -20 88 -24l4 -4v-12l-28 -8l-28 8h-4l8 -12q0 -8 -12 -8l-48 16h-4v-4l12 -28l-20 -20l-48 60v-8l12 -40q-10 0 -12 -16l-4 -4h-16l-16 72h-4l-16 -52q18 -2 56 -44v-4l-8 -8q-13 0 -96 68h-4v-4l4 -12l-28 -24l-16 16l20 48h-16q0 -24 -36 -28q-23 -48 -32 -52
h-4q0 25 20 80h-4l-24 -24h-4l-16 16v12q63 56 72 56v4l-8 24q-24 6 -24 20l16 24h-4q-80 -16 -80 -32q-16 -19 -24 -60v-4l8 -12v-8l-8 -8q-11 0 -28 28v20l24 44v4q-12 15 -12 28q15 11 56 20v4l-20 32v20l28 28h8q31 -35 48 -40h8l32 20q-16 5 -40 40q-28 17 -28 24
q3 24 12 24h20v4l-8 24l8 8h12q12 0 32 -80h8l-8 44q6 20 28 20h8l8 -8l-12 -16v-36l8 -12l-4 -4v-4q0 -16 20 -16v-4l-8 -12q9 0 16 -40l12 12v32l-4 16l4 12l-4 4v4l4 4v4l-4 12l4 36v4l-88 104zM292 364l-4 -4v-48h4l20 24zM188 340v-8h4v8h-4zM360 312l4 -12h4l16 16v4
l-12 12q-9 0 -12 -20zM336 280v-4h4l8 8v4h-4zM76 284l16 -20h8v12l-16 8h-8zM168 276l4 -4h16v4l-8 8h-4zM120 252v-4h8v4h-8zM300 216v-8h4l36 36h-8q-18 -7 -32 -28zM328 200v-8l48 -36h4l12 44v20q-16 0 -16 16h-4zM168 196v-12h8l8 20v4h-4zM252 180l12 -12h4v4l-8 8
h-8zM196 132v-8h12v8h-12zM228 96l24 -20l4 4v36l-8 8z" />
    <glyph glyph-name="plus" unicode="+" horiz-adv-x="1196" 
 />
    <glyph glyph-name="comma" unicode="," horiz-adv-x="160" 
d="M94 163q0 -51 34 -51l17 -61v-73l-22 -23l-29 6l-22 -23h-11l-23 23v17q56 44 56 56v5l-28 6l-28 -34h-5q-23 0 -23 85q23 61 34 61h5l6 -5z" />
    <glyph glyph-name="hyphen" unicode="-" horiz-adv-x="3524" 
d="M33 300q45 0 45 -122h11q0 111 33 111h34q22 0 22 -89q22 0 33 89h44l12 -11h11q-42 -267 -67 -267h-33q-34 0 -34 111h-11q-11 -111 -33 -111h-33q-39 0 -67 267zM322 300q45 0 45 -122h11q0 111 33 111h33q23 0 23 -89q22 0 33 89h44l11 -11h11q-41 -267 -66 -267h-33
q-34 0 -34 111h-11q-11 -111 -33 -111h-34q-38 0 -66 267zM611 300q44 0 44 -122h11q0 111 34 111h33q22 0 22 -89q23 0 34 89h44l11 -11h11q-41 -267 -66 -267h-34q-33 0 -33 111h-11q-11 -111 -33 -111h-34q-38 0 -66 267zM1000 289h22l22 -22v-178l22 -22v200l23 22h33
l22 -22v-211q-18 -45 -78 -45h-44l-45 45v211zM1189 300q155 0 155 -67v-55l-22 -22l33 -134l-11 -11h-44q-23 0 -34 111h-22v-89l-22 -22h-33l-23 22v234zM1366 289l11 11h111l45 -45v-22l-11 -66l22 -89v-11q0 -45 -156 -56l-11 11v11zM1633 289h55q28 0 56 -256v-22h-56
q-22 0 -22 33h-22q0 -33 -22 -33h-34l-22 22q28 256 67 256zM1788 289h45q26 0 33 -89h11q0 89 22 89h23l22 -22v-234l-22 -22h-34q-33 0 -44 100h-11q0 -100 -22 -100h-23l-22 22v234zM1988 289h134l22 -22v-12q0 -22 -45 -22l-11 -11v-189l-33 -33h-11l-34 22l12 167v22
q0 22 -45 22l-11 11v23zM2177 289h122l22 -22q0 -27 -88 -45v-44q66 0 66 -22v-12q-11 -33 -66 -33v-44h66l22 -23v-22l-22 -22h-122l-22 22v245zM2366 289h122l22 -22q0 -27 -89 -45v-44q67 0 67 -22v-12q-11 -33 -67 -33v-44h67l22 -23v-22l-22 -22h-122l-22 22v245z
M2710 289h45q55 -28 55 -100l-33 -22h-22q-23 0 -23 55l-11 11h-11v-166q22 0 22 55l12 11h44q22 0 22 -33q0 -58 -55 -89h-45q-77 0 -77 78v122q0 78 77 78zM2921 300q70 -22 78 -56v-155q0 -60 -44 -78h-78q-45 18 -45 78v55q0 156 89 156zM3155 289h22l22 -22v-178
l22 -22v200l22 22h34l22 -22v-211q-18 -45 -78 -45h-44l-45 45v211zM3377 300q22 -26 22 -78h11q11 67 33 67h34l22 -22l-45 -111l56 -134l-11 -11h-56q-22 0 -33 78h-11q0 -78 -22 -78h-34l-22 22v234q0 25 56 33zM1244 233v-55h33v55h-33zM1444 233v-44l22 22zM2910 222
v-144h22v144h-22zM1655 167v-67h11v67h-11zM1444 122v-55h22v55h-22zM889 100h33l22 -22v-45l-22 -22h-33l-23 22v45zM2555 100h33l22 -22v-45l-22 -22h-33l-22 22v45zM3043 100h34l22 -22v-45l-22 -22h-34l-22 22v45z" />
    <glyph glyph-name="hyphen" unicode="&#xad;" horiz-adv-x="3524" 
d="M33 300q45 0 45 -122h11q0 111 33 111h34q22 0 22 -89q22 0 33 89h44l12 -11h11q-42 -267 -67 -267h-33q-34 0 -34 111h-11q-11 -111 -33 -111h-33q-39 0 -67 267zM322 300q45 0 45 -122h11q0 111 33 111h33q23 0 23 -89q22 0 33 89h44l11 -11h11q-41 -267 -66 -267h-33
q-34 0 -34 111h-11q-11 -111 -33 -111h-34q-38 0 -66 267zM611 300q44 0 44 -122h11q0 111 34 111h33q22 0 22 -89q23 0 34 89h44l11 -11h11q-41 -267 -66 -267h-34q-33 0 -33 111h-11q-11 -111 -33 -111h-34q-38 0 -66 267zM1000 289h22l22 -22v-178l22 -22v200l23 22h33
l22 -22v-211q-18 -45 -78 -45h-44l-45 45v211zM1189 300q155 0 155 -67v-55l-22 -22l33 -134l-11 -11h-44q-23 0 -34 111h-22v-89l-22 -22h-33l-23 22v234zM1366 289l11 11h111l45 -45v-22l-11 -66l22 -89v-11q0 -45 -156 -56l-11 11v11zM1633 289h55q28 0 56 -256v-22h-56
q-22 0 -22 33h-22q0 -33 -22 -33h-34l-22 22q28 256 67 256zM1788 289h45q26 0 33 -89h11q0 89 22 89h23l22 -22v-234l-22 -22h-34q-33 0 -44 100h-11q0 -100 -22 -100h-23l-22 22v234zM1988 289h134l22 -22v-12q0 -22 -45 -22l-11 -11v-189l-33 -33h-11l-34 22l12 167v22
q0 22 -45 22l-11 11v23zM2177 289h122l22 -22q0 -27 -88 -45v-44q66 0 66 -22v-12q-11 -33 -66 -33v-44h66l22 -23v-22l-22 -22h-122l-22 22v245zM2366 289h122l22 -22q0 -27 -89 -45v-44q67 0 67 -22v-12q-11 -33 -67 -33v-44h67l22 -23v-22l-22 -22h-122l-22 22v245z
M2710 289h45q55 -28 55 -100l-33 -22h-22q-23 0 -23 55l-11 11h-11v-166q22 0 22 55l12 11h44q22 0 22 -33q0 -58 -55 -89h-45q-77 0 -77 78v122q0 78 77 78zM2921 300q70 -22 78 -56v-155q0 -60 -44 -78h-78q-45 18 -45 78v55q0 156 89 156zM3155 289h22l22 -22v-178
l22 -22v200l22 22h34l22 -22v-211q-18 -45 -78 -45h-44l-45 45v211zM3377 300q22 -26 22 -78h11q11 67 33 67h34l22 -22l-45 -111l56 -134l-11 -11h-56q-22 0 -33 78h-11q0 -78 -22 -78h-34l-22 22v234q0 25 56 33zM1244 233v-55h33v55h-33zM1444 233v-44l22 22zM2910 222
v-144h22v144h-22zM1655 167v-67h11v67h-11zM1444 122v-55h22v55h-22zM889 100h33l22 -22v-45l-22 -22h-33l-23 22v45zM2555 100h33l22 -22v-45l-22 -22h-33l-22 22v45zM3043 100h34l22 -22v-45l-22 -22h-34l-22 22v45z" />
    <glyph glyph-name="period" unicode="." horiz-adv-x="192" 
d="M78 218h12q14 -16 74 -23l12 -17q-5 -52 -18 -52q-7 29 -17 29v-6l12 -109l-18 -11q-18 13 -80 23v-18q46 -11 46 -23l-23 -11q-38 0 -63 52l11 51v58z" />
    <glyph glyph-name="slash" unicode="/" horiz-adv-x="569" 
 />
    <glyph glyph-name="zero" unicode="0" horiz-adv-x="939" 
d="M908 1041h8l24 -24l-8 -24q40 -10 40 -24q0 -16 -24 -16l8 -40v-8q-43 -6 -96 -104q11 -41 32 -56l-8 -40l16 -112v-184l24 -8q-18 -133 -224 -296l-112 -48l-24 8l-24 -8v8l-8 -8h-16l-8 8l-8 -8h-8l-160 48h-32q-24 -24 -104 -56l-160 -224h16l24 8l8 -8v-8
q0 -37 -96 -72l-24 24v16q61 110 128 192v8l-40 -8l-24 24v8q96 99 96 120l-32 40v8l8 8v8q-72 64 -72 224h-8l-16 -112l8 -72l-24 -16q-24 41 -24 80v24l8 32l-8 32q45 142 104 208q153 265 400 344q7 21 136 32q105 0 168 -48q104 50 104 96zM828 857l8 -8h8l24 40h-8z
M260 409v-80h8q122 225 248 344q16 1 64 80q32 0 32 16v8h-104q-117 0 -216 -184q-32 -92 -32 -184zM708 593l16 -48v-136q36 0 56 208v64h-8q-43 -40 -64 -88zM196 593l-48 -120q23 -168 48 -168v8l-24 120l8 8v8l-8 24l32 112v8h-8zM676 569q-100 -156 -184 -240l-24 -40
l16 -24l-88 -80l8 -8h32q240 17 240 128l24 128l-8 136h-16zM404 465v-8h8l32 64q-19 0 -40 -56zM380 449v-16h16v16h-16zM884 393v-24h8v24h-8zM132 161v-16l16 16h-16zM156 73v-16l16 16h-16zM100 1l48 48v8h-8q-40 -24 -40 -56z" />
    <glyph glyph-name="one" unicode="1" horiz-adv-x="467" 
d="M366 1010l35 -26l-18 -165l52 -685l-8 -26l17 -17l-35 -35l9 -9v-8q-11 -43 -26 -43h-26l-26 17q-15 -61 -35 -61h-8q-24 0 -35 121l17 52l-17 87h8l-8 9v61l-18 138v70l-8 173q-52 -75 -96 -251q-13 -35 -26 -35h-17l-9 9h-8l-35 -44q-20 0 -26 44q35 307 139 511
q54 78 69 78h9l26 -26l35 18h17l26 -9v9q6 43 26 43zM80 446v-26l17 18l-9 8h-8z" />
    <glyph glyph-name="two" unicode="2" horiz-adv-x="1020" 
d="M416 1004h14q170 -62 170 -92l21 -46v-73q-40 -154 -191 -359l-105 -147v-9q35 -3 35 -28l247 46l7 9l7 -9l35 9h99q36 -53 84 -55l7 9q85 -14 85 -36l-14 -19l-275 19v9l-42 -9v-10q251 -18 395 -55q0 -37 42 -37l14 -27q0 -19 -21 -19l-275 -18v9l-7 -9h-21
q-129 0 -607 -92l-7 10v9l7 45l-56 -27h-57v46q0 18 28 18v74q0 57 156 294q149 294 176 294q23 56 85 56l-15 18l-21 -9l-21 37l64 18v18l-71 19q-227 -51 -310 -166l-21 19h-15l-21 -19h-27l-15 19v9l21 46l-6 27l253 138q91 46 169 46zM261 940v-9h14v9h-14zM543 885
q7 -111 21 -111l7 37q-4 74 -21 74h-7zM289 508v-19h29q0 22 105 221v9h-7q-70 -76 -127 -211zM430 627v-18h14v18h-14zM423 600v-19h7v19h-7zM325 406v-9l35 46v9zM85 140v-9h7l42 55l-7 9v18q78 71 148 212v18h-7q-14 0 -92 -138q-51 -48 -91 -165zM282 223v-10h14l50 37
l-21 19q-30 -13 -43 -46zM571 223l15 -19l7 9v10h-22zM635 112v-9h14v9h-14zM656 112v-9h35v9h-35zM275 57h21l14 18h-21zM219 57v-18l35 9l-14 18zM162 29h14v19z" />
    <glyph glyph-name="three" unicode="3" horiz-adv-x="987" 
d="M91 1010l35 -8q303 0 485 -110q85 -78 85 -158v-40q0 -27 -64 -71v-15q123 -30 169 -87l21 15q141 -133 141 -197l7 -39q0 -188 -352 -300h-147l-240 39q-70 23 -70 56q-67 13 -120 79v71l15 15h21l28 -23l14 15h7l14 -15v-8l-14 -24l134 -39l7 8l35 -8h162
q288 62 288 181h-7q-59 -77 -246 -118h-7l-14 47l21 16h49q96 20 169 95q-62 82 -162 126l-120 -32l-35 8l-35 -8l-7 8l-14 -16h-7l-35 32h-14q-50 -40 -134 -40h-49l-14 16v8l14 16h35l7 -8q63 21 63 32v7l-56 56q0 16 77 16v7q-56 5 -56 24v16h35l7 -8q183 34 183 103
q0 23 -35 23v8l-7 -8h-7q-91 6 -91 16l-134 -16q0 -16 21 -16v-15h-14q-120 10 -120 31v24q0 39 247 39h42l35 -8q-28 48 -56 48l-323 -32l-8 8v8l36 32l-7 39v16q32 63 112 63zM112 963v-8h14v8h-14zM407 836q23 -26 92 -39v8q0 23 -64 47h-14zM555 789v-39h7q28 11 28 23
l-14 16h-21zM449 757q0 -64 -91 -134h14q65 37 106 111l-22 23h-7zM506 639h7l49 8v24h-7q-49 -11 -49 -32zM893 363q0 -24 -29 -63v-95l-84 -79v-8h7q127 87 127 174v55l-14 16h-7zM590 63v-16h21l49 8l-7 8v8l-7 -8h-56z" />
    <glyph glyph-name="four" unicode="4" horiz-adv-x="1013" 
d="M313 977h6l21 -24v-75l-7 -41h34l7 -8h7q-10 -149 -28 -149l-6 58h-7q-27 -76 -48 -346l-13 -50l-7 -8v-17q102 28 102 42v16l-7 124l21 16h6q21 0 21 -33l-7 -41h20v41l55 75q0 58 61 99l14 16h13l21 -25l-7 -33q27 0 27 -24q0 -131 -13 -190l20 -8l27 8l7 -8l34 8h20
l7 -8l7 8h7l48 -8l61 8l13 -25l-13 -16v-9l48 9h74l41 -17l75 8q41 -8 41 -24q0 -23 -61 -33l-7 8l-7 -8l7 -9v-16l-14 -17h-102l-47 -16l-7 8q-239 -25 -286 -58l7 -123v-124q0 -65 -48 -99h-27q-13 0 -21 75q-13 0 -20 66h-7q0 -63 -54 -141q0 -25 -34 -25l-14 17v8
q34 109 34 173l-7 8v9l7 8q0 49 -34 82v17q-91 0 -259 -66h-20q0 -20 -41 -58q0 -90 -27 -90h-7l-20 25l20 90q-34 0 -34 25q0 27 20 57h-6l-7 -8h-7l-7 8v9l54 74v58q33 462 116 462q32 189 130 189q0 45 34 66zM238 854l-21 -66l14 -17l20 83h-13zM217 755v-25h7v25h-7z
M204 713v-57h6v57h-6zM265 664l14 -17v33zM122 598l-14 -58q14 0 28 50l-7 8h-7zM558 507v-66h7v66h-7zM422 416v-33l13 -16h7l20 25v41zM599 342v-16l81 16l7 -8v16h-41zM728 350v-8h14v8h-14zM442 326l-7 -9v-8h21z" />
    <glyph glyph-name="five" unicode="5" horiz-adv-x="922" 
d="M682 1019h135l15 -15q0 -24 -79 -24v-8h174l16 -16v-8q0 -63 -261 -63l-276 -24v-15q31 -4 31 -24l-16 -16h-7q-14 16 -119 24q-39 0 -95 -87h8l24 8l316 -40q308 -143 308 -276v-48l-16 -63l8 -8v-8q-76 -189 -142 -189l-40 23l-245 -126l-94 -16h-16q-140 0 -182 87v32
h16q44 -79 126 -79h8v7q-63 13 -63 48l8 24l-40 15l-8 -8h-7q-76 0 -111 103v32q8 23 47 23l8 -7v-8l-8 -32q52 -24 111 -24h24q148 0 387 174v24q-300 197 -419 197v-39q63 -5 63 -16l8 8h8l24 -8v-16h-8q-73 0 -150 48h-16v-8q23 -33 24 -87l-24 -16h-24q-12 0 -47 87
l-24 32v8l16 23v8l-16 16l-47 -16l8 -8v-8l-16 -15h-23q-24 7 -24 47q4 27 126 71l31 71h-23q-58 -31 -102 -31l-16 15l-24 -15h-24l-16 15v16q2 27 134 56v39h-15l-24 -16h-39l-24 24v16l40 31h157q299 79 561 79zM643 964l-24 8l-182 -16v-16l32 8l8 -8l268 32v8h-63
q-39 -2 -39 -16zM406 948v-8h23v8h-23zM137 885v-8h16v8h-16zM429 664v-8l16 -16h16q0 12 -32 24zM493 624q4 -19 55 -39v8q-36 31 -55 31zM611 624v-8q87 -116 87 -134h8l8 87zM564 569v-8h15v8h-15zM327 545h15v-16h-15v16zM753 514l40 -127h16l8 24q-16 0 -16 55
q-32 26 -32 56l-8 -8h-8zM445 221v-8h40q78 14 158 119h-8q-144 -110 -190 -111zM469 150v-16h24l55 16v8h-16zM271 95v-8l24 -8l8 8v8h-32z" />
    <glyph glyph-name="six" unicode="6" horiz-adv-x="875" 
d="M468 1027l7 -8h8l31 8q0 -15 45 -23q23 -33 23 -61q0 -23 -61 -62h-15v23l30 39l-38 -8l-30 8q-7 -21 -92 -54q-196 -186 -200 -284q-15 0 -23 -61l8 -8h8q37 51 92 77h7l8 -8h8l-16 -38h8q116 107 260 107l46 -15l8 8h8q131 -37 214 -153l54 -184q-65 -205 -207 -269
q-108 -61 -214 -61v8l-8 -8q-299 91 -299 215q-28 22 -107 245q-21 0 -31 130q4 216 123 245q25 0 69 85q32 30 61 30l38 -7zM169 751l7 -8h8q0 23 69 92h-8q-76 -48 -76 -84zM69 728v-23h8v23h-8zM445 613v-15h53v23h-15zM100 613v-61h7l8 53l-8 8h-7zM176 460v-31l77 115
v8h-8zM253 353q0 -100 69 -100q115 8 260 46l8 -8v-7q0 -38 -207 -69v-16l46 -15h31l69 31h15l15 -16v-7l-38 -39h8l92 39l7 -8h8q79 33 115 115v23l-100 115h-15q0 -38 -15 -38l-23 23l15 61q-33 0 -99 46h-16q-106 0 -230 -138zM690 529l92 -115h7v15q-27 46 -92 100h-7z
M130 383v-30h16v7l-8 23h-8zM452 61l8 -7v-8q82 0 237 77v7h-23q-162 -69 -222 -69z" />
    <glyph glyph-name="seven" unicode="7" horiz-adv-x="1003" 
d="M526 961l6 -7h7l28 7h7l21 -7l41 7q152 -9 152 -34l-14 -14h-34l-62 7l-28 -7l-21 7v-7l28 -21l21 7l34 -7l7 7h7l42 -14l6 7h7q53 0 63 -27l-28 -14l-90 7v-21l35 -21l20 7l14 -28q-48 -73 -48 -221l7 -124l7 -7q40 4 62 21h28q25 -21 48 -21l104 7q0 -23 48 -42v-14
q0 -18 -200 -34q0 -14 -83 -14h-7v-7l13 -235l-6 -21l6 -62v-27q-15 -42 -69 -42l-20 62h-14l-28 -20q-41 13 -41 76v6l7 7l-7 7v166l-7 49l-139 -49l-13 35l-42 -14q-11 0 -34 48v14l13 21l-27 7l-7 -7h-28q-21 7 -21 41q151 35 270 42l21 -7l7 83v41l-28 215h-111l-69 -7
v7q-181 -28 -256 -56l-13 14h-7q-26 0 -104 -41h-7l-20 20v7l20 28q-20 0 -20 14v21q3 19 151 55v14q-132 -19 -186 -42l-14 21v7q0 35 442 104l7 7h7v-7zM539 913v-7h35l-7 7v7zM650 775l-7 -63h21v63h-14zM650 636v-27h21v48zM678 270v-35h7v35h-7zM643 118l7 -55h21
l-14 69zM698 111v-14h14v14h-14z" />
    <glyph glyph-name="eight" unicode="8" horiz-adv-x="850" 
d="M452 1017q133 0 206 -178l22 -21l-8 -7v-7q29 -60 29 -121q0 -51 -57 -121v-14q149 -89 149 -192q15 0 43 -164q-66 -95 -164 -128q-127 -64 -184 -64h-114q-178 42 -178 100q-107 82 -107 170v7q23 121 57 121v7q-64 54 -64 143q0 109 36 192v49q-15 0 -15 -35l-21 14
v-14h14l-21 -21l-21 7v-22l-22 -14l22 -57l-22 -14l-14 36h-21l-14 -114v-7l14 -22v-21l-14 -14l-36 42v57q0 181 292 313q143 114 213 114zM381 953v-7h21l107 7v14h-14v7l-22 -7l-7 7zM224 718v-28q31 -107 57 -107l7 7h7q38 -49 100 -49q107 56 107 106q0 46 -36 71l7 50
l-14 71h-50q-121 -26 -170 -92zM495 839q0 -85 99 -156v50l-35 64v42h-64zM580 669l-14 -43v-7h14l7 35v15h-7zM665 669v-15h7v15h-7zM125 612v-107q0 -33 42 -71v-7h8q75 64 99 64v7q-50 27 -149 114zM552 612q-31 -57 -50 -57v-14h14q45 28 57 56zM587 484v-7
q0 -16 64 -29q0 11 -50 36h-14zM196 270q0 -64 57 -64q0 -28 192 -35q173 0 206 85v7q0 92 -213 192h-22q-106 -40 -220 -185zM658 448v-7q0 -16 36 -21l-29 28h-7zM729 327v-7q22 -36 22 -71h14v21q0 39 -29 57h-7zM694 171q35 10 35 49v15h-7q-16 0 -28 -64zM352 142
q0 -20 64 -28l8 7h7l7 -7h7l57 7l-7 7v7l-36 -7h-7zM338 64v-14l114 -7l50 7v7z" />
    <glyph glyph-name="nine" unicode="9" horiz-adv-x="762" 
d="M242 996h224l105 -60h7q0 30 45 45h8l15 -15q-23 -32 -23 -60h8l59 15l30 -97l-15 -22v-67l8 -30l-8 -30v-15h8l22 15h15v-30q-32 -23 -52 -194l15 -194h-8l15 -90l-7 -7l7 -75v-52q-15 -105 -37 -105l-30 30l8 45q-30 39 -30 82h7l-15 60v37h-15l-7 -30l22 -142l-7 -7
h-23q-27 28 -52 216q-22 153 -22 277h-8q0 -15 -216 -45q-178 0 -292 179q-21 0 -37 30q10 149 82 239q122 97 194 97zM210 901v-14l111 42v14zM147 915v-14l14 14h-14zM84 838l7 -7h7l42 63h-7zM475 894q0 -42 -14 -42h-56v7l14 21h-14q-133 -41 -195 -160q-5 -42 -14 -42
q0 -28 42 -35l7 7h20v-7l70 7h49l105 35q42 9 42 21v62l28 35v63l-63 28h-21zM140 727v-21l14 -14q9 68 91 146h-7q-98 -38 -98 -111zM370 615v-7h56l98 28v14zM286 559v-7l49 -7q182 14 182 42h-7q-100 -28 -224 -28z" />
    <glyph glyph-name="colon" unicode=":" horiz-adv-x="569" 
 />
    <glyph glyph-name="semicolon" unicode=";" horiz-adv-x="569" 
 />
    <glyph glyph-name="semicolon" unicode="&#x37e;" horiz-adv-x="569" 
 />
    <glyph glyph-name="less" unicode="&#x3c;" horiz-adv-x="1196" 
 />
    <glyph glyph-name="equal" unicode="=" horiz-adv-x="4661" 
d="M33 295q43 0 43 -120h11q0 109 33 109h33q22 0 22 -87q22 0 32 87h44l11 -11h11q-41 -262 -66 -262h-32q-33 0 -33 109h-11q-11 -109 -33 -109h-32q-39 0 -66 262zM317 295q43 0 43 -120h11q0 109 33 109h33q22 0 22 -87q21 0 32 87h44l11 -11h11q-41 -262 -66 -262h-32
q-33 0 -33 109h-11q-11 -109 -33 -109h-33q-38 0 -65 262zM601 295q43 0 43 -120h11q0 109 33 109h33q22 0 22 -87q21 0 32 87h44l11 -11h11q-41 -262 -66 -262h-32q-33 0 -33 109h-11q-11 -109 -33 -109h-33q-38 0 -65 262zM972 284h33l21 -22v-196h66l22 -22v-11l-22 -33
l-44 11l-87 -11l-11 11v65l11 33l-11 55v98zM1190 284h55q27 0 54 -251v-22h-54q-22 0 -22 33h-22q0 -33 -22 -33h-32l-22 22q27 251 65 251zM1354 284h22l22 -22v-175l22 -21v196l21 22h33l22 -22v-207q-18 -44 -76 -44h-44l-44 44v207zM1540 295q153 0 153 -66v-54
l-22 -22l32 -131l-10 -11h-44q-22 0 -33 109h-22v-87l-22 -22h-32l-22 22v229zM1747 284h120l22 -22q0 -26 -87 -44v-43q65 0 65 -22v-11q-11 -33 -65 -33v-43h65l22 -22v-22l-22 -22h-120l-22 22v240zM1933 284h43q26 0 33 -87h11q0 87 22 87h22l22 -22v-229l-22 -22h-33
q-33 0 -44 98h-11q0 -98 -21 -98h-22l-22 22v229zM2184 284h44q54 -28 54 -98l-33 -22h-21q-22 0 -22 54l-11 11h-11v-163q22 0 22 54l11 11h43q22 0 22 -33q0 -57 -54 -87h-44q-76 0 -76 76v120q0 77 76 77zM2326 284h120l22 -22q0 -26 -87 -44v-43q65 0 65 -22v-11
q-11 -33 -65 -33v-43h65l22 -22v-22l-22 -22h-120l-22 22v240zM2544 295q22 -25 22 -77h11q11 66 33 66h33l21 -22l-43 -109l54 -131l-11 -11h-54q-22 0 -33 76h-11q0 -76 -22 -76h-32l-22 22v229q0 25 54 33zM2719 284h120l22 -22q0 -26 -87 -44v-43q65 0 65 -22v-11
q-11 -33 -65 -33v-43h65l22 -22v-22l-22 -22h-120l-22 22v240zM2905 295q153 0 153 -66v-54l-22 -22l32 -131l-10 -11h-44q-22 0 -33 109h-22v-87l-22 -22h-32l-22 22v229zM3101 284h44q26 0 33 -87h11q0 87 21 87h22l22 -22v-229l-22 -22h-32q-33 0 -44 98h-11
q0 -98 -22 -98h-22l-22 22v229zM3341 284h55q27 0 55 -251v-22h-55q-22 0 -22 33h-22q0 -33 -21 -33h-33l-22 22q28 251 65 251zM3494 284h44q26 0 33 -87h11q0 87 22 87h21l22 -22v-229l-22 -22h-32q-33 0 -44 98h-11q0 -98 -22 -98h-22l-21 22v229zM3844 284h43
q55 -28 55 -98l-33 -22h-22q-21 0 -21 54l-11 11h-11v-163q22 0 22 54l11 11h43q22 0 22 -33q0 -57 -55 -87h-43q-77 0 -77 76v120q0 77 77 77zM4051 295q68 -22 77 -55v-153q0 -58 -44 -76h-76q-44 18 -44 76v55q0 153 87 153zM4281 284h21l22 -22v-175l22 -21v196l22 22
h33l22 -22v-207q-18 -44 -77 -44h-44l-43 44v207zM4499 295q22 -25 22 -77h11q11 66 32 66h33l22 -22l-44 -109l55 -131l-11 -11h-55q-21 0 -32 76h-11q0 -76 -22 -76h-33l-22 22v229q0 25 55 33zM1594 229v-54h33v54h-33zM2959 229v-54h33v54h-33zM4040 218v-142h22v142
h-22zM1212 164v-66h11v66h-11zM3363 164v-66h11v66h-11zM874 98h32l22 -22v-43l-22 -22h-32l-22 22v43zM3691 98h33l21 -22v-43l-21 -22h-33l-22 22v43zM4171 98h33l22 -22v-43l-22 -22h-33l-21 22v43z" />
    <glyph glyph-name="greater" unicode="&#x3e;" horiz-adv-x="1196" 
 />
    <glyph glyph-name="question" unicode="?" horiz-adv-x="545" 
d="M307 1016q41 0 115 -70q23 0 51 -39q64 0 64 -64v-12q-13 -94 -109 -186q-51 -18 -172 -134v-13q0 -25 83 -38h6q64 0 160 32l38 -64q-72 -102 -211 -102h-64q-83 36 -83 134q-44 38 -44 83v19q44 34 44 115q64 85 154 109l6 6l6 -6v-6q-117 -93 -121 -128h6
q87 46 109 102l58 77v19q0 15 -45 19v6q-164 -38 -211 -108q-12 -32 -38 -32l-26 -13h-6l-7 6h-6v-12h-19v19h-32l-7 6h-6q0 51 26 51l-7 45q29 0 205 147zM179 850v-7l109 64h-13q-55 0 -96 -57zM466 812v-13h13v25zM236 575v-6h13l13 12v7h-13zM403 390v-7h25l13 13l-6 7z
M351 249q20 -15 39 -147q-29 -86 -64 -102h-7q-10 0 -31 45q-64 0 -64 76q0 84 64 109q0 14 63 19z" />
    <glyph glyph-name="at" unicode="@" horiz-adv-x="920" 
d="M540 1018l20 -13l6 7l100 -20h20q0 -34 13 -34q76 0 133 -112q40 0 73 -179q21 0 46 -133q0 -254 -232 -292q-35 0 -47 -40l-26 -6l-40 59h-93q-135 29 -159 80q-53 47 -53 146q21 71 60 99q134 87 212 87q44 0 139 -100l7 7v6l-40 140q-28 0 -66 93l-73 13
q-35 -35 -40 -66l-26 -7l-7 7v19q0 23 20 47l-7 6q-162 0 -212 -99q-40 -84 -53 -166q0 -209 93 -418q63 -86 119 -86h93l20 13h40q11 0 26 -39q88 21 106 53h7l20 -20q0 -30 -47 -47l7 -32l-13 -27l6 -20q-67 -40 -132 -40q-215 0 -392 186q-50 0 -152 152l-20 80
q53 319 179 471q151 194 292 219zM447 919v-7h73l-13 13zM666 899v-27q15 -20 139 -66l7 -7v14l-47 39q-24 47 -59 47h-40zM513 879v-7h67l-14 14h-6zM752 766v-6l27 -34h6v7q-4 18 -33 33zM812 746q0 -35 -20 -46q25 -36 46 -126v-40l-20 -66l7 -7v-7l-13 -39h6
q47 24 47 126l-20 159v13zM726 706v-6q39 -96 39 -153l-13 -59l7 -20h6l20 79v20q-34 135 -53 139h-6zM122 620v-13h7v13h-7zM580 600l20 -39h6v13l-20 26h-6zM493 587q-61 -55 -66 -113v-66h60q113 8 113 60l13 59v20h-13l-27 -6q-32 0 -33 46l-27 -7zM639 554l7 -60h7
l6 20l-6 40h-14zM686 541l6 -7v-46h7l13 13v20l-13 26l-7 -6h-6zM162 521v-27l13 -13v40h-13zM726 441l-20 -73h20l13 60v13h-13zM149 322q0 -151 132 -232h7v6q-53 70 -106 272h-7q-26 -11 -26 -46zM745 302h14l93 53v7h-7q-99 -48 -100 -60zM586 355q-35 -46 -106 -46v-7
l66 -7h54l6 7h7q-14 53 -27 53zM76 322l-7 -20q13 -75 40 -113h6v20q-24 113 -39 113zM606 -9l7 -7h13l40 26h-7q-49 0 -53 -19z" />
    <glyph glyph-name="A" unicode="A" horiz-adv-x="666" 
d="M384 1020l21 3l25 -16l-6 -46q45 -5 52 -44l12 14l-11 63l18 22l7 1l26 -22l-3 -20q47 -178 117 -319l-6 -7l1 -6l12 -25l-6 -7l1 -6l12 -24l2 -13l-12 -15l-7 -1q-14 -2 -31 48l-14 -2l26 -145l15 -37q-6 -52 19 -223l8 -5l1 -6l-3 -26l13 -31q-5 -100 -28 -126l15 -43
q-1 -45 -20 -48l-15 -2q-25 10 -58 114l-8 5l-19 23q-29 -4 -31 9l-17 94l2 26q-30 53 -58 160l-72 -10q-194 -28 -178 -116q-52 -117 -67 -119l-27 -10l-32 -30q6 -32 -70 -55l-24 9l-7 -1q-23 -22 -47 -25l-11 17l99 227q81 219 240 537q114 227 144 259zM370 773
q-11 -76 -113 -345l3 -19l155 41l-1 6l-16 43l-4 103l-8 5q-8 83 14 125l-16 43zM417 676l9 -128l8 -44l15 -43l15 2l-39 214zM579 679l11 -62l15 2l-19 61zM212 512l-25 -107l7 1q17 2 26 100l-1 7zM471 342l2 -6l16 -11l-3 19z" />
    <glyph glyph-name="B" unicode="B" horiz-adv-x="979" 
d="M155 1051l14 -14v-64l148 22q325 -37 325 -78q25 0 162 -162v-14q0 -32 -42 -78v-7q240 -111 240 -261v-42q0 -109 -177 -219q-50 -55 -268 -106l-169 -14l-113 7l-21 -21q-150 114 -240 148l-14 42v15q0 23 85 28v14q-19 0 -36 35v7l14 14l-7 29l7 134l-7 70l7 28
l-28 36v7q3 14 36 28l-8 7v14l15 21v71l7 28l-7 7v7q5 42 14 42l-7 7v7l7 7v8l-7 42v14q39 24 49 127l7 7h14zM198 875l-22 -71l7 -70h7q0 20 29 35h7l14 -14v-7l-28 -43v-7h112l29 21h7l7 -7l7 7q157 -7 204 -21q28 32 29 64q-28 113 -191 113h-218zM621 825
q28 -26 28 -106q42 38 42 71q0 18 -70 35zM741 741l-43 -57l7 -7h7l43 50v14h-14zM219 621l-14 -14l84 -22h35l78 15h14v14q-92 5 -92 14l-7 -7h-98zM346 536h-134l-14 -14q14 -23 14 -71l35 29h21l21 -22q-35 -24 -35 -63l-7 -21l7 -7v-50q0 -98 28 -98h64l7 -7l7 7l49 -7
h92l28 7l7 -7q159 28 219 91l28 36v56q0 51 -56 120q-79 78 -120 78h-7q-47 -26 -254 -57zM875 543v-7q70 -94 70 -204l-7 -22l7 -7h7l7 36l-7 7l7 35v7q0 99 -84 155zM832 501v-14l14 -64q0 -152 -141 -240h14q163 80 163 170v49l-43 99h-7zM85 289v-14h21v35zM176 282v-21
h14v21h-14zM508 63l7 -7l28 7v15h-21z" />
    <glyph glyph-name="C" unicode="C" horiz-adv-x="917" 
d="M602 961h15l14 -16l-7 -8v-7q34 0 158 -71v-7l-8 -8h-35l-22 15h-14v-31h-7q-15 0 -15 24l-7 7h-43q-12 0 -29 -46h-14l-14 15l14 16l-7 8q-158 -43 -158 -63l79 16q90 -21 115 -47v-8l-15 -15h-14q-16 15 -79 23q-240 0 -330 -234q15 -68 72 -125q50 -31 108 -31l14 -16
h251l36 8l7 -8v-8q0 -29 -151 -39l-43 8h-64l-29 8l-21 -8v-8q226 -47 466 -62l21 8q93 -28 93 -39l-7 -8h-165l-14 -16h50l36 -8l122 16l7 -8v-8l-43 -15q0 -24 -14 -24h-165l-29 -15v-16l136 24l7 -8v-8q0 -61 -437 -70l-57 -8q-227 0 -309 211l-35 171q-11 0 -22 71
q0 107 100 202q38 114 230 203zM237 352v-15l21 -8v8l-14 15h-7zM151 235q115 -86 157 -86h15l-151 86h-21zM179 165l-7 -8v-8l100 -47h8v8zM344 141v-7l36 -8h7v15h-43z" />
    <glyph glyph-name="D" unicode="D" horiz-adv-x="906" 
d="M206 1000q347 -46 446 -129q167 -112 234 -355l7 -81v-16q0 -96 -113 -217l-185 -146q-91 -48 -156 -48l-42 8l-78 -16l-7 8h-7l-7 -8h-7l-8 8h-7l-7 -8h-7q-100 13 -142 56l-42 -8l-14 17l7 56v89l-7 24l7 40v145l-28 250v73l21 24h7l7 -8h7q0 32 14 32h14l15 -16v-201
h7q34 217 71 217h7q12 0 21 -40l-7 -40l7 -8l-7 -41v-427l99 -24h64q97 13 198 104l43 89q-17 127 -128 323q-63 84 -212 121l-192 32l-28 -16l-28 8l-29 -8l-14 48v8l14 16l85 -8v8q18 65 107 65zM177 943v-8h21v8h-21zM588 847q112 -109 149 -250l28 -129v-25l-7 -120h15
l35 137v72l-57 137v8l7 8v8q-52 89 -163 154h-7zM177 637q0 -40 -14 -40l14 -154h7v194h-7zM680 492v-8l7 -210h15l7 81q-7 137 -29 137zM808 331v-17h7v17h-7zM376 161l-7 8h-8l-28 -8l-85 16q0 -44 64 -64h85q241 29 241 121l7 80q-132 -153 -269 -153zM163 185v-40l21 -8
v8l-7 40h-14zM227 185v-8h14v8h-14zM340 56v-8l29 -8l7 8v17z" />
    <glyph glyph-name="E" unicode="E" horiz-adv-x="829" 
d="M211 1034q28 0 48 -89l270 36l7 -9h7l129 17l20 -17h135q21 0 21 -36h61l20 -26v-18q0 -23 -54 -35l-7 9l-34 -9h-88l-27 -9l-7 9l-34 -9l-460 -9v-9l-14 -194l7 -9l278 26h68l74 18h142l27 -35v-9q0 -34 -189 -62q0 -44 -122 -44l-61 9h-122l-27 8l-27 -8l-34 8l-14 -17
l7 -9v-9l-7 -62l7 -62h-7q14 -34 14 -97q41 -4 41 -53l67 -18h264l27 -9l28 9h203l13 -18q-6 -26 -40 -26l-34 9v-18q27 0 27 -18v-17q0 -27 -68 -36l-20 -26h-224l-6 9l-7 -9h-109l-6 9l-7 -9h-95l-27 -9l-7 9h-7l-115 -18h-54q-115 6 -115 44v27q0 14 48 26l26 -9h28v9
l-7 45l20 230v70l7 9l-20 177h6l-6 9v124h-14q-25 -27 -47 -27l-41 71l21 35h67q6 54 27 71h7l27 -26h7v61l13 18q34 -6 34 -44q48 0 48 62l6 9h7zM130 556v-9h13v9h-13zM123 530v-27h7v27h-7zM340 149v-18h13v9l68 -9h27l68 9v9h-176zM523 149l13 -18h34l14 18h-61z" />
    <glyph glyph-name="F" unicode="F" horiz-adv-x="832" 
d="M769 1033q16 -46 34 -46l82 9q27 -13 27 -27v-9q0 -19 -54 -37l-7 9q-92 -9 -163 -45l-7 9h-7l-183 -28v9l-7 -9h-54q-252 -24 -252 -55q0 -191 68 -283l408 46q54 -6 54 -18l7 9h136l20 -28v-9q0 -27 -47 -27q0 -39 -75 -46l-27 9q0 -15 -48 -27l-68 9l-102 -9l-6 9
q-119 -13 -136 -37l-95 19l-7 -10q54 -177 75 -356v-27l-21 -28h-20l-21 28l7 9h-13q0 -24 -41 -46q-51 0 -61 119h-7v-28l7 -64l-41 -18l-14 73l7 46l-27 174l7 9v9q0 116 -41 146v18l27 46l-13 165l13 118l-34 -9h-20q-13 0 -41 73v10l27 45l7 -9l204 37l7 -9h6
q0 24 530 82zM137 430q14 -156 28 -156v9l-14 147h-14zM226 356v-18h-7l14 -110l-7 -9l34 -18v9l-27 146h-7zM267 192v-27h6v27h-6z" />
    <glyph glyph-name="G" unicode="G" horiz-adv-x="814" 
d="M551 976q75 0 173 -81l-20 -7l-60 15h-26l6 -8v-14l-6 -8v-7l20 -22q-11 -37 -40 -37l-13 30h-73q-11 -23 -87 -23q-177 -109 -232 -264l-33 -132q36 -119 219 -228l66 -29h47q66 15 66 29q0 111 -40 111l-99 -22l-20 44l53 29l-13 15v36q0 32 205 59q13 34 27 37h13
q13 0 13 -22l-6 -22h26l47 22q0 -22 59 -22q0 -15 27 -15l7 -7v-15q0 -15 -20 -15l-60 15h-7q0 -44 -26 -44v-15q3 -17 53 -36l6 -8v-14l-19 -22h-34v-30q10 -162 93 -300l-20 -22q-34 0 -79 153l-7 -7h-6l26 -132q-8 -81 -26 -81h-7l-20 23l7 36v15q-50 27 -73 132h-7
l-13 -30l46 -153l-6 -8h-20q-25 0 -60 161l-73 -14h-93q-139 34 -139 58h-13v-14l112 -52v-21h-66q-58 26 -152 117q-117 43 -126 58q-17 88 -27 88l7 30l-7 139q77 299 192 382q193 169 358 169zM517 899v-13l50 7v6l-31 7zM331 817v-7h12v7h-12zM144 548v-14h6v14h-6z
M132 527v-20h6v20h-6zM144 328v-14q12 -64 75 -110q74 -55 112 -55h12v7q-54 0 -174 137l-19 35h-6zM679 121v-14h6v14h-6zM511 114v-14l13 14h-13z" />
    <glyph glyph-name="H" unicode="H" horiz-adv-x="886" 
d="M695 1010q37 0 43 -104l-17 -95l9 -26h8q0 78 61 121q0 74 52 104l34 -34v-9q-34 -68 -43 -156h-8l8 -43v-9q0 -60 -43 -60q0 -18 26 -18l9 -8v-26q-35 -96 -35 -148v-216l-9 -9l9 -26l9 -164q-7 -104 -26 -104h-26q-26 0 -26 52h-52l-26 26l8 26l-43 207l9 26l-9 9
l-43 -9h-87l-43 -8l-217 17l-8 -9q8 -164 43 -328l-9 -9h-17l-26 17h-17q0 -27 -44 -52q-69 78 -69 113v26q-52 0 -52 69l-9 52l9 9v8l-17 78l8 9v8l-8 26l8 96l-8 34l8 35v69l9 9l-9 9v173l9 52l-17 78l8 26h-8l-9 34l-26 26l9 9h9l34 -35l43 18l18 -26l8 8h26q18 0 26 -95
l9 -9v-69q52 0 52 -17v-251q5 -26 69 -26h113q10 17 173 34h43v44l9 8l-9 9l9 43v9q0 221 52 329q2 43 26 43zM444 430v-9h34v9h-34z" />
    <glyph glyph-name="I" unicode="I" horiz-adv-x="683" 
d="M307 947l39 -23l47 15h280l31 -31v-16q-43 -85 -70 -85q-179 0 -280 -31q0 -75 55 -78l7 -8v-16l-7 -7l46 -405q0 -23 16 -23l124 62l32 -24v-15q0 -17 -63 -31v-8h31l47 16h8q60 -24 70 -47v-8q-41 -53 -163 -109q-27 0 -102 -62l-31 8l-62 -39l-8 8q-286 -39 -296 -55
h-15l-16 16v16q0 21 86 38v-7l101 38h8l-16 16l-171 -31l-16 23q0 41 164 70l31 31l31 -8q53 12 78 39v31h-8q0 -31 -23 -31h-8q-23 0 -47 172l-7 7v327l7 47l-7 31l7 8l-15 15l-8 -7h-15l-47 15l-117 -15h-8l-62 31v31q0 39 319 86zM611 176v-15h16v15h-16z" />
    <glyph glyph-name="J" unicode="J" horiz-adv-x="927" 
d="M793 993h14l6 -8l7 8h21q129 0 129 -33l-21 -16l-81 8h-55v-16l28 -8l34 8l6 -8h7l95 16l41 -8h27v-16q0 -51 -183 -73v8l-163 -41l34 -236l13 -268q0 -99 -27 -154l21 -33v-8q-52 -43 -61 -81l13 -16q0 -21 -115 -49q-31 0 -68 41l-54 -16q-66 0 -129 219l-48 130v81
l27 33h21l27 -25l-7 -8v-8l20 -33v-8l-13 -24q7 -49 20 -49q0 57 21 57l13 -16v-33l-7 -32q11 -65 27 -65h14l-14 97v73l21 25l13 -16v-49q0 -179 48 -179l41 -8q67 157 67 276q-20 0 -20 16v17h7l-7 57v113l-7 90l7 24l-7 8v8l7 33l-7 8h-20l-543 -65l-7 8v24q0 25 48 25
v24q-40 0 -68 -32h-20l-14 16v24q65 63 475 122v-8q16 15 346 49zM793 952v-16h7v16h-7zM630 660v-49h7v49h-7zM630 570v-16h7v16h-7zM657 278l-20 -90q14 0 27 65v25h-7zM406 99v-8l14 -16v8zM617 50h6q28 12 28 25v8q-31 -16 -34 -33z" />
    <glyph glyph-name="K" unicode="K" horiz-adv-x="955" 
d="M145 993h6q17 0 25 -83l-6 -9l6 -84v-58l-6 -9l6 -8v-75l6 -34l-6 -25l69 -25l344 293q146 101 169 101h13l18 -26l57 26l12 -17v-9q0 -25 -44 -25l-6 -8l-37 -34v-8l50 17l6 -25q0 -25 -25 -25l-6 -9v-17h6l131 93h7l12 -17q0 -31 -332 -243q-173 -134 -206 -134l12 -17
q230 117 295 176l43 34l13 -17q-88 -124 -294 -210v-8q0 -12 162 -101l220 -175q131 -132 131 -176v-25l-25 -34h-56q-44 50 -451 201l-131 75q-58 36 -69 67l6 42h-19l-62 -42l6 -8v-67l6 -126l-19 -16h-6l-19 16v-8l19 -117l-19 -17h-12q-13 0 -13 42l-6 8h-6l-13 -16h-12
q-14 0 -32 175l7 26h-13q-26 -34 -50 -34l-18 34v25q11 30 37 42l31 -9v25q-44 0 -44 25v9q3 17 32 33q-32 122 -63 436l7 33v84l18 25q25 0 25 -83l6 -9h7l25 143h18l19 -17h6zM76 826l6 -25l-12 -51v-58l-7 -9l7 -8v-84l6 -92l-6 -8v-9q12 -32 12 -92v-17h13v59l-7 134
l7 8v9l-7 8v9l7 8l-7 42v184l-6 -8h-6zM145 792l-7 -42l7 -8l-7 -42l7 -92h6v184h-6zM577 675h6l69 59v8q-69 -45 -75 -67zM326 558v-9q42 23 50 51h-6zM189 558l-19 -34h19l12 17zM264 507v-8h6l19 8l-13 17zM339 466l12 -17l13 17v8h-6zM408 424l250 -126q-3 16 -225 151
h-7zM339 298l-6 -8v-9q126 -75 156 -75v17q-22 0 -150 75zM138 281l7 -142v-25h12v151l-12 16h-7zM508 198v-9h12v9h-12zM614 198v-9l132 -67q0 25 -126 76h-6zM821 147l62 -50h7v17l-44 33h-25z" />
    <glyph glyph-name="L" unicode="L" horiz-adv-x="968" 
d="M30 1012h21l15 -19l-7 -10l7 -28h7q0 38 15 38h7l29 -29q11 0 22 38l7 10h8l21 -29l-14 -113q0 -223 58 -490v-19l255 47h160l29 9l29 -9h131l7 -10l8 10h65l36 -38l-7 -9h-138l-29 9l-7 -9h-8l-58 9l-29 -9l-29 9h-7v-9l36 -10q313 -6 313 -56q-7 -29 -44 -29h-29
l-306 -28v-9h15v-10l7 10h102l102 9l7 -9h8l7 9q189 -16 189 -57l-15 -18l-65 18q-98 -37 -589 -75q-117 -16 -117 -38q-28 -104 -43 -113l-44 47v47h-15l-29 -28h-7q-15 0 -15 28l-36 -9l-7 28h-8l-21 -19h-22l-22 29v19q0 22 65 37l8 10v47h-51l-22 28v10q0 16 58 47v19
q-14 0 -36 377h7l-7 28l7 29v18h-7l7 95v75l-7 57zM110 691v-57q0 -114 58 -330l7 10h7q-65 290 -65 377h-7zM248 247v-18l211 37v19l-7 -9h-8l-7 9h-7zM510 285v-9h14v9h-14zM495 229v-10h95v10h-95zM139 210v-19h7v19h-7z" />
    <glyph glyph-name="M" unicode="M" horiz-adv-x="1109" 
d="M794 1140l13 -24l-20 -30l41 -100q34 -3 34 -24v-61q27 -258 55 -293l-7 -8l20 -69h14l-34 208q14 0 14 31l6 8h7l21 -24v-30q0 -104 102 -493l48 -162q19 0 28 -131v-15l-14 -16q-24 29 -27 78q-31 0 -41 76q-11 0 -41 62q-24 0 -28 54q-42 44 -102 254l-48 77v-16
q49 -95 89 -261l61 -116v-8l-20 -23h-14q0 31 -55 85q-150 354 -150 447q-76 -156 -96 -339q-23 -31 -34 -108l13 -54l-20 -15h-14l-48 46l-27 -8q-17 0 -34 100q-59 112 -165 231h-6v-7q89 -138 89 -239l-7 -8h-21q-13 1 -68 185q-100 130 -117 131l-34 -354l21 -47
q0 -38 -14 -38l7 -8v-8l-14 -15h-27q-14 0 -14 39q-9 0 -14 54q-27 0 -27 46q-27 0 -27 31l7 7l-7 70h-7l-7 -62l7 -8v-131l-14 -15h-13l-21 23v46l41 362q-14 34 -20 170q15 239 82 239q13 0 13 23l7 7h14l61 -61l28 7q13 -38 41 -38v-8l-14 -15q23 -90 103 -200
q37 -98 123 -178l55 -46q13 0 82 324q14 0 14 38q55 201 123 201l-14 92l7 8q12 54 55 54zM705 747q-14 -85 -69 -255h14l68 239v16h-13zM102 654l-13 -115l20 -39l-20 -8l7 -92h6l14 146v93zM629 469l-20 -61l7 -8h7l13 62v7h-7zM588 308v-16h7v16h-7z" />
    <glyph glyph-name="N" unicode="N" horiz-adv-x="879" 
d="M738 1006h8v-15l-8 -8v-7h15l45 22q68 -7 68 -22v-8q-60 -70 -60 -143h15q3 28 30 45l15 -15v-37q-27 0 -53 -271l8 -23l-8 -8l68 -482l-15 -15h-15q-17 0 -22 106h-8q0 -71 -15 -83l7 -23q-14 0 -67 -60h-8q-49 27 -135 121q-79 0 -204 158l-203 331h-8v-22h8l-8 -61
q40 -384 76 -384v-7l-15 -15h-31q-18 0 -22 75h-15l7 -91v-22q0 -41 -30 -60h-7q-15 0 -15 22l-8 8h-7l-46 -45q-26 0 -37 195q-13 0 -30 272l-8 7l8 30l-8 30q18 248 75 271q0 14 38 16v-31l60 53h8q11 0 45 -68v-15h-15q0 -44 60 -113q26 -80 188 -218v7q-93 110 -158 241
l-15 16v15l15 15h15q45 -42 166 -249q158 -175 158 -211h8v38q-30 36 -30 196v37l52 302q1 161 68 203zM60 629h15q0 46 38 121h-8q-45 -55 -45 -121zM663 464v-46l7 -52h-7l22 -76h8v15l-23 159h-7zM98 260v-158h15v143zM761 155v-23h7v23h-7zM761 110v-15h15v15h-15z" />
    <glyph glyph-name="O" unicode="O" horiz-adv-x="834" 
d="M624 1010q36 -16 40 -32l8 8h8q48 0 48 -32l-8 -25q37 -59 57 -177l-8 -8v-8q51 -102 80 -274v-65q0 -239 -306 -362q-89 -33 -89 -48h8l57 8l8 -8v-8q-46 -41 -81 -41h-32l-81 25l-40 -8h-72q-218 98 -218 273v65l8 104l-8 89q11 119 97 234q221 226 403 258zM535 929
v-16l129 -56v8l-40 72h-49zM430 744h-24v16l16 24v16h-8q-250 -142 -250 -427q57 -201 202 -201h32q218 40 218 161l8 129v81q-8 223 -81 257l-32 25h-32q-49 -40 -49 -81zM616 800q104 -333 104 -459v-48l-16 -73v-8h8l33 129v16l-9 40h9l-9 8v9l9 40l-17 48l8 41l-8 24
l8 8l-24 113v24q-43 0 -64 80l-8 8h-24zM801 454l-8 -32l8 -89h8l8 56l-8 33l8 24l-8 8h-8zM148 244v-16l48 -48h9v16q-25 0 -41 48h-16zM632 228l-8 -32l32 32h-24zM59 188v-8l33 -81h24v8q-43 80 -57 81zM422 131v-16q65 15 65 33v8q-35 -25 -65 -25zM156 83v-16
q16 -56 97 -56h8v8q-26 0 -81 64h-24zM277 51q36 -40 65 -40l169 48v8h-8z" />
    <glyph glyph-name="P" unicode="P" horiz-adv-x="827" 
d="M178 1016h24l24 -16h8l32 8l31 -16l8 8q217 -32 287 -79q81 -26 215 -183q47 -65 47 -120v-8q-29 -93 -143 -191q-192 -143 -302 -143h-96l-8 8h-8l-24 -64l56 -254l-24 -24h-16q-16 0 -16 24l-39 -8q-42 42 -56 87h-8l-8 -8h-8l8 -39v-16l-24 -24h-24q-17 0 -71 398
l-40 358v24l8 8l-8 7v104q0 38 64 40q8 39 55 39v40q0 16 40 16q0 24 16 24zM258 913l8 -8v-24h-24v24l-8 -8h-8l8 -64l-8 -8l8 -40v-215q33 -151 55 -151q138 15 287 128l24 39l24 64q0 98 -144 199l-95 48l-104 16h-23zM154 897v-32h24v32h-24zM67 857v-8l8 -40h-8
q12 -32 24 -32v72zM162 841l-8 -8v-8l16 -79l16 15q-4 80 -24 80zM600 841l119 -127v16q-28 57 -111 111h-8zM91 761v-15h7v15h-7zM671 690v-8l8 -48q-83 -167 -135 -167v-8h8q151 73 151 135v40q0 43 -32 56zM162 634l8 -151l8 -8h16l-16 159h-16zM329 364l-32 8l-8 -8
q12 -32 24 -32l48 24v-8q234 40 334 127v16q-198 -127 -366 -127zM329 244h8l-8 -39h-24v7q12 32 24 32z" />
    <glyph glyph-name="Q" unicode="Q" horiz-adv-x="996" 
d="M551 1006q14 0 29 -49q126 -13 126 -64l-7 -57q81 -96 81 -186v-178l-15 -121q237 -123 237 -178l-22 -16q0 -20 51 -41q0 -52 23 -73l-30 -32l-133 57h-15l7 -8v-25l-14 -16q-150 121 -259 121q-71 -144 -215 -217l-103 -9q-104 30 -104 73q-185 121 -185 218v122
l22 129l-7 32v25q26 174 111 283q86 97 214 153l37 33h15q39 0 67 -25q30 49 89 49zM602 909v-8h15v8h-15zM632 901v-8q0 -19 37 -25q-7 33 -37 33zM588 860v-8q0 -98 44 -315l-7 -8l7 -41v-72q0 -14 81 -49h30v24l15 89v138q-42 186 -74 186h-8q-14 0 -14 -24l-8 -9h-7
l-15 17l22 40zM469 788v-8q40 -97 74 -243h8l7 24q-24 178 -67 178v8l8 8v8zM188 318v-89l-7 -8q19 -102 81 -145h37q81 0 200 129q-56 33 -163 65l-7 8v24l22 25l66 -17l-7 8v17l15 32l-8 40l67 33l44 -8h8v8q-28 139 -104 340h-15q-162 -181 -214 -405zM247 747v-16l15 16
h-15zM232 723l-51 -97v-16h14l45 105v8h-8zM114 561q-44 -119 -44 -162v-48q11 0 37 162q14 0 14 40v8h-7zM602 488v-16h8v16h-8zM602 464v-57h8v57h-8zM765 302v-16h15v16h-15zM639 294v-8h15v8h-15zM669 278v-8h15v8h-15zM47 238q0 -67 45 -106v8l-30 106l-7 -8h-8z
M817 165q0 -18 52 -33l7 8v9zM299 -29v-8h37q66 0 185 89v16h-7q-168 -97 -215 -97z" />
    <glyph glyph-name="R" unicode="R" horiz-adv-x="1047" 
d="M126 1039h6q23 -13 23 -47h108l5 -8q22 16 63 16h56q70 -14 142 -63q30 0 63 -62q76 0 131 -140q-8 -257 -63 -257q-11 -31 -34 -31v-8q0 -15 34 -15q66 -63 295 -164q143 -88 165 -124v-24h-6q-105 70 -312 171q1 -11 131 -93q48 -36 108 -132v-8l-18 -23h-5
q-55 102 -278 233h-12q64 -75 210 -163l114 -132v-8l-11 -16h-6l-91 86l-34 -8q-104 36 -176 85l-409 226q-65 50 -114 117h-22l-6 -8h-6q16 -82 34 -358v-39l-11 -15h-11q-13 0 -17 39l-23 -24h-6q-11 0 -11 39q-11 0 -11 -23l-6 -8h-6q-22 15 -45 195l-34 210l-6 8v77
l-11 24v23l5 31l-5 8v8l5 8v7l-5 31l5 8l-5 39v133q0 15 -17 15l-6 8v15l40 63h11l17 -8v8q0 31 40 31q28 0 28 47zM149 891l11 -148l-5 -8q0 -109 22 -109l131 -47l51 16l6 -8q147 14 147 101v16h6q0 138 -204 179l-6 -8h-6l-51 23h-91l-5 -7h-6zM109 883l-11 -31l6 -24h5
l12 47l-6 8h-6zM620 891h23v-16h-11zM104 813v-8l17 -125h5v16q-11 117 -22 117zM546 758l12 -62l-12 -31l6 -8h6l11 47v31l-17 23h-6zM643 727q0 -49 -108 -171h6q53 14 125 109v23l-12 39h-11zM121 673v-16h5v16h-5zM495 486l80 -23q102 56 102 140h-6q-58 -63 -176 -109
v-8zM353 408v-16h17l-11 16h-6zM422 354q70 -63 130 -86v23l-113 63h-17zM626 229v-16h17l-11 16h-6zM649 213q0 -20 51 -31q0 18 -51 31zM779 136v-16l29 -8h5q0 16 -34 24zM825 104v-7h17v7h-17z" />
    <glyph glyph-name="S" unicode="S" horiz-adv-x="869" 
d="M532 1027h7l117 -109q53 -66 87 -66q66 -21 87 -44v-14l-14 -15l-102 37q-10 -44 -22 -44q-47 36 -73 36h-14l-37 -7v-22q190 -31 190 -65v-7l-15 -15q-41 25 -153 44l-22 -8q0 13 -95 30h-94l-44 -8l-36 8h-8q-24 0 -51 -22l44 -73l-7 -7h-8q-30 0 -80 43v-7
q0 -96 219 -189l262 -81q160 -41 160 -174q51 -50 51 -124q0 -86 -357 -124h-123q-265 31 -335 95q-62 73 -66 124q0 64 44 87l22 -7l43 43l22 -7l22 7q0 -29 44 -29v-7q0 -15 -44 -15l-7 -72q13 -37 94 -37v-7l80 51h8l43 -44h15q291 37 291 80q-18 34 -204 109l-298 153
q-139 105 -139 175v44q74 147 153 160l139 66zM291 838v-15h15l14 15h-29zM44 277l-8 -44q15 0 22 44h-14zM816 189l-15 -58l15 -14l22 21v37l-15 14h-7zM714 153h14l15 15v14h-7q-11 0 -22 -29zM95 160l29 -29v15l-15 29zM204 138v-7l15 -14h14v14zM269 124l-7 -7v-8l7 -7
h124v15h-51z" />
    <glyph glyph-name="T" unicode="T" horiz-adv-x="1099" 
d="M802 1013v-9l6 9h35l23 -19v-28h-18v-19l29 9h76l174 19l17 -38v-10q0 -30 -325 -133l-226 -77v-28l41 9l6 -9v-19q-15 -26 -18 -115q39 -384 76 -486l-35 -95h-6q-23 0 -23 95q-10 8 -35 152h-12l18 -76v-10l-12 -19l12 -114q-10 -67 -23 -67h-6q-18 26 -41 191h-6
l6 -48v-38q0 -19 -17 -19l-18 9l-11 -19h-6q-23 19 -23 58l6 47l-6 153v76l-12 77v86l-35 171h-5l-47 -19h-23l-17 29l11 28h-6q-20 -28 -86 -28l-18 19l-6 -10h-127l-35 39h-6q0 -58 -98 -58l-12 29q0 45 87 76v19q-17 0 -17 19v20l11 19h6q28 0 58 -29l261 67
q71 38 452 114h6zM790 966l12 -19h35l-12 19h-35zM524 889v-9h11v9h-11zM419 870v-9h18v9h-18zM599 775l6 -10h6q7 19 197 57l6 10v10h-6q-209 -29 -209 -67zM234 813v-10h46l-12 19zM164 794v-10h29v10h-29zM547 794v-10l11 -19h6v29h-17zM66 756v-10h23v10h-23zM379 737
v-10h11v10h-11zM512 240v-28h6v28h-6z" />
    <glyph glyph-name="U" unicode="U" horiz-adv-x="1133" 
d="M887 1014h18q30 0 63 -136l27 18q127 -74 127 -307v-18q0 -76 -45 -253v-9h9l81 63l18 -18v-9q-19 -47 -163 -135v-18l-9 -9l28 -27q0 -16 -127 -100q-93 -90 -153 -90h-55l-153 28l-54 -9q-274 0 -334 243l-109 208l-63 153l9 90v163q18 90 45 90h9l18 -18l-9 -54v-9h9
l18 36v18l-9 63l36 27h9l19 -18v-9l-10 -9l55 -307h18l-18 154q9 63 27 63h9q18 0 27 -108l-9 -9l18 -127h9l27 18h9l27 -27l-9 -63q0 -177 108 -316l118 -36h45q124 0 154 27l27 -18q72 106 99 244l-9 9l9 63l-9 54l9 27l-9 9v9l18 27l-9 64l9 72l-9 54h18l-9 45h-45v-36
h-18l-27 90l9 9h9q18 0 18 -36h27l9 54l-9 27zM851 860h18v-9h-18v9zM986 770v-54h18l-9 54h-9zM932 634v-235q0 -50 -81 -189h18v-9q70 0 81 126l-9 199l9 27l-9 36h9l-9 45h-9zM228 580v-18h9v18h-9z" />
    <glyph glyph-name="V" unicode="V" horiz-adv-x="948" 
d="M943 1071l15 -22v-8q-30 -34 -30 -52l15 -15v-8q-27 -27 -60 -105v-7l23 15l7 -8v-15q-94 -193 -135 -367q-75 -299 -82 -383l-45 -37l-38 37q0 -60 -52 -120l-83 38l-7 7h-8q0 -45 -37 -45q-30 12 -30 23v7l15 23v30q-30 41 -150 322q-15 0 -15 45q-102 175 -188 240
l-45 60v8l23 30q-68 112 -68 157v8l15 15h8q22 0 22 -53q15 0 15 23l8 7h15q45 -37 45 -82h15q15 0 15 22l-23 53q18 67 30 67h15q25 0 45 -97q45 -23 75 -83l-15 -15q0 17 -37 23v-8q0 -75 120 -232q0 -21 75 -113q60 -103 120 -157h7q53 264 83 525v37q-30 34 -30 83
q11 52 37 52q30 0 45 -97l-7 -68v-60q11 0 52 180q21 60 53 60q10 53 22 53h15l30 -23l-7 -37v-23q75 27 75 68zM43 854v-23h8v23h-8zM373 419v-15l15 -15h8q-12 30 -23 30zM411 366v-7q20 -48 52 -68h15l-52 75h-15zM426 141q11 -30 22 -30v53h-7q-15 0 -15 -23z" />
    <glyph glyph-name="W" unicode="W" horiz-adv-x="1082" 
d="M905 1096q29 -13 56 -57l19 6l13 -18l-13 -19l13 -13q19 32 51 32l19 18l19 -18v-13q-38 -58 -70 -284l6 -7q-25 -202 -88 -442l-13 -57l38 -82v-25h-19q-17 0 -25 50h-6q0 -50 -19 -88l6 -19l-19 -13q-38 0 -38 45q-57 0 -57 75q-112 150 -151 228l-7 6h-6v-6l107 -247
l-6 -6h-6q-61 65 -120 221q-19 10 -19 57q-20 -19 -57 -101v-38q-6 -108 -76 -227q0 -26 -31 -38q-19 0 -19 -13l6 -18h-6l-32 6q-18 -38 -63 -38q0 -32 -19 -32h-6l-13 13v57l-19 25l6 31v7q-258 517 -258 581l12 31l-19 83l7 6h6l69 -221l25 -32h13v7q-34 88 -44 88
q-14 0 -19 69l6 7h6l-12 38l19 50l-13 51v19q0 10 51 31q12 0 69 -63v-38q0 -74 114 -265q76 -139 76 -158h6q78 73 95 139l-7 6q21 133 70 133l19 -6l6 6v6l-19 19v13l19 19h7l82 -82l19 12q69 -49 107 -132l70 -83h6v45l6 57l-6 6l31 303q-25 9 -25 57v57q38 56 57 183h13
zM968 963v-19h6v19h-6zM955 906l-19 -69l7 -6h6l12 69v6h-6zM980 837v-13h7v13h-7zM968 774v-6l-7 -76h13v44l6 6l-6 7v6l6 19h-12zM955 660v-63h6l7 44l-7 19h-6zM109 591v-13h6v13h-6zM943 559v-44h6l6 57zM96 490v-13q72 -174 120 -215h6q-69 108 -120 228h-6zM658 433
q47 -98 152 -215v19q-72 125 -145 196h-7zM298 351v-19h13v6zM469 351v-13l12 13h-12zM797 344v-6h13v6h-13zM311 325v-25l12 -13h7v7l-13 31h-6zM222 199v-13q15 -38 26 -38v13l-19 38h-7zM450 180v-13h6v13h-6zM437 155v-19h6v19h-6zM412 79v-13h13zM286 54v-38
q15 0 18 50h-6z" />
    <glyph glyph-name="X" unicode="X" horiz-adv-x="1133" 
d="M985 1010l20 -25l45 17v-17q-3 -33 -103 -81l-135 -130v-8h6q117 114 225 179l7 -8v-9l-71 -73h6l52 16v-8l26 -8l6 -8v-16q-121 -80 -270 -244q133 -104 238 -212q129 -103 129 -154l-7 -9h-13q-131 147 -186 163h-32q151 -191 238 -211l19 -25q0 -57 -45 -57l6 -8v-16
l-12 -16q-97 0 -483 333l-20 25q-43 0 -218 -188l-33 -65v-8h39v-24l-13 -25h13v17h13l13 -17q-34 -40 -58 -40h-26q0 -49 -90 -49l-26 -32h-32l-19 16q-11 -33 -45 -33q-20 0 -20 57l-32 8l-13 -16h-6l-32 41v16q0 31 38 97l-6 33q46 59 328 309q0 16 26 16q-83 69 -161 98
q-256 152 -289 220v8l19 24l45 -40h6v8q-90 95 -90 130l7 8h32l58 -65h12q0 24 13 24h7q21 0 71 -40h6l19 16h26l245 -114l161 -98h25l303 310zM284 806l32 -32h26v8q-7 24 -39 24h-19zM245 766q6 -21 142 -122h13q-121 122 -155 122zM380 758v-9q0 -28 103 -97v8
q-8 22 -103 98zM503 709l64 -74l19 9v24zM606 595h32v24h-7q-25 -12 -25 -24zM696 546h6l13 16h-6zM754 546l-13 -24q94 -74 174 -106h19q-136 123 -180 130zM200 229l7 -8v-9q-15 -39 -91 -81v-33h7l380 375v8h-13v8q-127 -95 -290 -260zM168 74v-8q166 170 167 187h-6z
M284 74v-16h45l39 16v8q-26 0 -26 49h-7z" />
    <glyph glyph-name="Y" unicode="Y" horiz-adv-x="1010" 
d="M1019 1054h30l14 -14l-14 -20l7 -27q-24 0 -88 -75h15l58 34h8l14 -13v-14q-321 -334 -321 -366l-350 -441v-7q29 0 29 -13q-26 -51 -87 -95l-44 13l-15 -13h-14l-22 20v21q22 25 22 61v20h-15q0 -30 -109 -142q0 -27 -37 -48h-7l-15 14v7l59 81l-15 20q106 172 350 482
v6q-13 25 -44 34l-21 -20h-8q-14 0 -14 34q-32 59 -176 122q-124 78 -175 149l8 7v7q0 12 -51 47l-7 7v7l7 27l-15 20v34l15 14h21l22 -21l-7 -6q19 -55 37 -55h7v7l-7 34l7 7h29l80 -82l139 -67h7q0 33 15 33h7q20 0 44 -94l168 -136q243 253 270 366l7 7h37l36 -34h7z
M122 871v-7h15v7h-15zM144 857l14 -13v13h-14zM282 823v-13l44 -27v20q-18 0 -36 20h-8zM428 715l30 -27h7l-29 27h-8zM640 688l-36 -48v-6h14l29 47v7h-7zM501 654l8 -20h14v6l-14 14h-8zM662 613v-7h14l15 28v6zM304 159v-7h8q16 0 36 68z" />
    <glyph glyph-name="Z" unicode="Z" horiz-adv-x="1251" 
d="M417 1011l20 -9l34 9h14v-9l48 9h410q16 -19 130 -46v-9l-14 -37h82l28 -27l41 18l7 -9v-18q0 -37 -130 -37v-9l-41 9l-89 -9l-7 9q-41 -67 -96 -91v-27q116 100 205 100l7 -9v-9l-34 -37q0 -27 -164 -109q-193 -122 -438 -329v-18l103 18h164l20 9l35 -9h232l226 -45
l7 -9v-10q0 -18 -55 -18l7 -9v-27h-7l-356 27h-27l-219 -9q0 -18 -34 -18v-19l226 28l6 -9l48 9h21q192 0 431 -73q35 0 68 -73v-9l-14 -19h-13q-168 55 -342 55h-212l-205 -36v9q-173 -30 -205 -64h-76q-26 -36 -68 -36l-21 -28h-6q-14 0 -14 28h-7l-20 -18h-21l-14 18v9
l55 73q0 18 -34 18l-21 27l-47 -27q-35 11 -35 27v28q0 22 137 63v19l-14 27v18q0 46 103 92l185 136l259 338v9l-280 -18v9l-7 -9h-7l-20 9l-103 -9h-150l-21 -18h-61l-14 18v18l14 28q-48 12 -48 27v27l14 19h7q47 -3 47 -19l21 10l-7 45l14 18zM294 929h-83l14 -19h14
l41 9l20 -9l28 9v19zM547 919h88l28 10l27 -10h14l13 19h-157zM717 673h14l27 37h-6zM430 408h14l267 256v9h-7q-166 -136 -274 -265zM423 271v-9h62v9h-14v10zM1128 271v-9h20v9h-20zM485 198v-9h14v9h-14zM225 144v-19h14v19h-14z" />
    <glyph glyph-name="bracketleft" unicode="[" horiz-adv-x="569" 
 />
    <glyph glyph-name="backslash" unicode="\" horiz-adv-x="569" 
 />
    <glyph glyph-name="bracketright" unicode="]" horiz-adv-x="569" 
 />
    <glyph glyph-name="asciicircum" unicode="^" horiz-adv-x="961" 
 />
    <glyph glyph-name="underscore" unicode="_" 
 />
    <glyph glyph-name="grave" unicode="`" horiz-adv-x="682" 
 />
    <glyph glyph-name="a" unicode="a" horiz-adv-x="666" 
d="M384 1020l21 3l25 -16l-6 -46q45 -5 52 -44l12 14l-11 63l18 22l7 1l26 -22l-3 -20q47 -178 117 -319l-6 -7l1 -6l12 -25l-6 -7l1 -6l12 -24l2 -13l-12 -15l-7 -1q-14 -2 -31 48l-14 -2l26 -145l15 -37q-6 -52 19 -223l8 -5l1 -6l-3 -26l13 -31q-5 -100 -28 -126l15 -43
q-1 -45 -20 -48l-15 -2q-25 10 -58 114l-8 5l-19 23q-29 -4 -31 9l-17 94l2 26q-30 53 -58 160l-72 -10q-194 -28 -178 -116q-52 -117 -67 -119l-27 -10l-32 -30q6 -32 -70 -55l-24 9l-7 -1q-23 -22 -47 -25l-11 17l99 227q81 219 240 537q114 227 144 259zM370 773
q-11 -76 -113 -345l3 -19l155 41l-1 6l-16 43l-4 103l-8 5q-8 83 14 125l-16 43zM417 676l9 -128l8 -44l15 -43l15 2l-39 214zM579 679l11 -62l15 2l-19 61zM212 512l-25 -107l7 1q17 2 26 100l-1 7zM471 342l2 -6l16 -11l-3 19z" />
    <glyph glyph-name="b" unicode="b" horiz-adv-x="979" 
d="M155 1051l14 -14v-64l148 22q325 -37 325 -78q25 0 162 -162v-14q0 -32 -42 -78v-7q240 -111 240 -261v-42q0 -109 -177 -219q-50 -55 -268 -106l-169 -14l-113 7l-21 -21q-150 114 -240 148l-14 42v15q0 23 85 28v14q-19 0 -36 35v7l14 14l-7 29l7 134l-7 70l7 28
l-28 36v7q3 14 36 28l-8 7v14l15 21v71l7 28l-7 7v7q5 42 14 42l-7 7v7l7 7v8l-7 42v14q39 24 49 127l7 7h14zM198 875l-22 -71l7 -70h7q0 20 29 35h7l14 -14v-7l-28 -43v-7h112l29 21h7l7 -7l7 7q157 -7 204 -21q28 32 29 64q-28 113 -191 113h-218zM621 825
q28 -26 28 -106q42 38 42 71q0 18 -70 35zM741 741l-43 -57l7 -7h7l43 50v14h-14zM219 621l-14 -14l84 -22h35l78 15h14v14q-92 5 -92 14l-7 -7h-98zM346 536h-134l-14 -14q14 -23 14 -71l35 29h21l21 -22q-35 -24 -35 -63l-7 -21l7 -7v-50q0 -98 28 -98h64l7 -7l7 7l49 -7
h92l28 7l7 -7q159 28 219 91l28 36v56q0 51 -56 120q-79 78 -120 78h-7q-47 -26 -254 -57zM875 543v-7q70 -94 70 -204l-7 -22l7 -7h7l7 36l-7 7l7 35v7q0 99 -84 155zM832 501v-14l14 -64q0 -152 -141 -240h14q163 80 163 170v49l-43 99h-7zM85 289v-14h21v35zM176 282v-21
h14v21h-14zM508 63l7 -7l28 7v15h-21z" />
    <glyph glyph-name="c" unicode="c" horiz-adv-x="917" 
d="M602 961h15l14 -16l-7 -8v-7q34 0 158 -71v-7l-8 -8h-35l-22 15h-14v-31h-7q-15 0 -15 24l-7 7h-43q-12 0 -29 -46h-14l-14 15l14 16l-7 8q-158 -43 -158 -63l79 16q90 -21 115 -47v-8l-15 -15h-14q-16 15 -79 23q-240 0 -330 -234q15 -68 72 -125q50 -31 108 -31l14 -16
h251l36 8l7 -8v-8q0 -29 -151 -39l-43 8h-64l-29 8l-21 -8v-8q226 -47 466 -62l21 8q93 -28 93 -39l-7 -8h-165l-14 -16h50l36 -8l122 16l7 -8v-8l-43 -15q0 -24 -14 -24h-165l-29 -15v-16l136 24l7 -8v-8q0 -61 -437 -70l-57 -8q-227 0 -309 211l-35 171q-11 0 -22 71
q0 107 100 202q38 114 230 203zM237 352v-15l21 -8v8l-14 15h-7zM151 235q115 -86 157 -86h15l-151 86h-21zM179 165l-7 -8v-8l100 -47h8v8zM344 141v-7l36 -8h7v15h-43z" />
    <glyph glyph-name="d" unicode="d" horiz-adv-x="906" 
d="M206 1000q347 -46 446 -129q167 -112 234 -355l7 -81v-16q0 -96 -113 -217l-185 -146q-91 -48 -156 -48l-42 8l-78 -16l-7 8h-7l-7 -8h-7l-8 8h-7l-7 -8h-7q-100 13 -142 56l-42 -8l-14 17l7 56v89l-7 24l7 40v145l-28 250v73l21 24h7l7 -8h7q0 32 14 32h14l15 -16v-201
h7q34 217 71 217h7q12 0 21 -40l-7 -40l7 -8l-7 -41v-427l99 -24h64q97 13 198 104l43 89q-17 127 -128 323q-63 84 -212 121l-192 32l-28 -16l-28 8l-29 -8l-14 48v8l14 16l85 -8v8q18 65 107 65zM177 943v-8h21v8h-21zM588 847q112 -109 149 -250l28 -129v-25l-7 -120h15
l35 137v72l-57 137v8l7 8v8q-52 89 -163 154h-7zM177 637q0 -40 -14 -40l14 -154h7v194h-7zM680 492v-8l7 -210h15l7 81q-7 137 -29 137zM808 331v-17h7v17h-7zM376 161l-7 8h-8l-28 -8l-85 16q0 -44 64 -64h85q241 29 241 121l7 80q-132 -153 -269 -153zM163 185v-40l21 -8
v8l-7 40h-14zM227 185v-8h14v8h-14zM340 56v-8l29 -8l7 8v17z" />
    <glyph glyph-name="e" unicode="e" horiz-adv-x="829" 
d="M211 1034q28 0 48 -89l270 36l7 -9h7l129 17l20 -17h135q21 0 21 -36h61l20 -26v-18q0 -23 -54 -35l-7 9l-34 -9h-88l-27 -9l-7 9l-34 -9l-460 -9v-9l-14 -194l7 -9l278 26h68l74 18h142l27 -35v-9q0 -34 -189 -62q0 -44 -122 -44l-61 9h-122l-27 8l-27 -8l-34 8l-14 -17
l7 -9v-9l-7 -62l7 -62h-7q14 -34 14 -97q41 -4 41 -53l67 -18h264l27 -9l28 9h203l13 -18q-6 -26 -40 -26l-34 9v-18q27 0 27 -18v-17q0 -27 -68 -36l-20 -26h-224l-6 9l-7 -9h-109l-6 9l-7 -9h-95l-27 -9l-7 9h-7l-115 -18h-54q-115 6 -115 44v27q0 14 48 26l26 -9h28v9
l-7 45l20 230v70l7 9l-20 177h6l-6 9v124h-14q-25 -27 -47 -27l-41 71l21 35h67q6 54 27 71h7l27 -26h7v61l13 18q34 -6 34 -44q48 0 48 62l6 9h7zM130 556v-9h13v9h-13zM123 530v-27h7v27h-7zM340 149v-18h13v9l68 -9h27l68 9v9h-176zM523 149l13 -18h34l14 18h-61z" />
    <glyph glyph-name="f" unicode="f" horiz-adv-x="832" 
d="M769 1033q16 -46 34 -46l82 9q27 -13 27 -27v-9q0 -19 -54 -37l-7 9q-92 -9 -163 -45l-7 9h-7l-183 -28v9l-7 -9h-54q-252 -24 -252 -55q0 -191 68 -283l408 46q54 -6 54 -18l7 9h136l20 -28v-9q0 -27 -47 -27q0 -39 -75 -46l-27 9q0 -15 -48 -27l-68 9l-102 -9l-6 9
q-119 -13 -136 -37l-95 19l-7 -10q54 -177 75 -356v-27l-21 -28h-20l-21 28l7 9h-13q0 -24 -41 -46q-51 0 -61 119h-7v-28l7 -64l-41 -18l-14 73l7 46l-27 174l7 9v9q0 116 -41 146v18l27 46l-13 165l13 118l-34 -9h-20q-13 0 -41 73v10l27 45l7 -9l204 37l7 -9h6
q0 24 530 82zM137 430q14 -156 28 -156v9l-14 147h-14zM226 356v-18h-7l14 -110l-7 -9l34 -18v9l-27 146h-7zM267 192v-27h6v27h-6z" />
    <glyph glyph-name="g" unicode="g" horiz-adv-x="814" 
d="M551 976q75 0 173 -81l-20 -7l-60 15h-26l6 -8v-14l-6 -8v-7l20 -22q-11 -37 -40 -37l-13 30h-73q-11 -23 -87 -23q-177 -109 -232 -264l-33 -132q36 -119 219 -228l66 -29h47q66 15 66 29q0 111 -40 111l-99 -22l-20 44l53 29l-13 15v36q0 32 205 59q13 34 27 37h13
q13 0 13 -22l-6 -22h26l47 22q0 -22 59 -22q0 -15 27 -15l7 -7v-15q0 -15 -20 -15l-60 15h-7q0 -44 -26 -44v-15q3 -17 53 -36l6 -8v-14l-19 -22h-34v-30q10 -162 93 -300l-20 -22q-34 0 -79 153l-7 -7h-6l26 -132q-8 -81 -26 -81h-7l-20 23l7 36v15q-50 27 -73 132h-7
l-13 -30l46 -153l-6 -8h-20q-25 0 -60 161l-73 -14h-93q-139 34 -139 58h-13v-14l112 -52v-21h-66q-58 26 -152 117q-117 43 -126 58q-17 88 -27 88l7 30l-7 139q77 299 192 382q193 169 358 169zM517 899v-13l50 7v6l-31 7zM331 817v-7h12v7h-12zM144 548v-14h6v14h-6z
M132 527v-20h6v20h-6zM144 328v-14q12 -64 75 -110q74 -55 112 -55h12v7q-54 0 -174 137l-19 35h-6zM679 121v-14h6v14h-6zM511 114v-14l13 14h-13z" />
    <glyph glyph-name="h" unicode="h" horiz-adv-x="886" 
d="M695 1010q37 0 43 -104l-17 -95l9 -26h8q0 78 61 121q0 74 52 104l34 -34v-9q-34 -68 -43 -156h-8l8 -43v-9q0 -60 -43 -60q0 -18 26 -18l9 -8v-26q-35 -96 -35 -148v-216l-9 -9l9 -26l9 -164q-7 -104 -26 -104h-26q-26 0 -26 52h-52l-26 26l8 26l-43 207l9 26l-9 9
l-43 -9h-87l-43 -8l-217 17l-8 -9q8 -164 43 -328l-9 -9h-17l-26 17h-17q0 -27 -44 -52q-69 78 -69 113v26q-52 0 -52 69l-9 52l9 9v8l-17 78l8 9v8l-8 26l8 96l-8 34l8 35v69l9 9l-9 9v173l9 52l-17 78l8 26h-8l-9 34l-26 26l9 9h9l34 -35l43 18l18 -26l8 8h26q18 0 26 -95
l9 -9v-69q52 0 52 -17v-251q5 -26 69 -26h113q10 17 173 34h43v44l9 8l-9 9l9 43v9q0 221 52 329q2 43 26 43zM444 430v-9h34v9h-34z" />
    <glyph glyph-name="i" unicode="i" horiz-adv-x="683" 
d="M307 947l39 -23l47 15h280l31 -31v-16q-43 -85 -70 -85q-179 0 -280 -31q0 -75 55 -78l7 -8v-16l-7 -7l46 -405q0 -23 16 -23l124 62l32 -24v-15q0 -17 -63 -31v-8h31l47 16h8q60 -24 70 -47v-8q-41 -53 -163 -109q-27 0 -102 -62l-31 8l-62 -39l-8 8q-286 -39 -296 -55
h-15l-16 16v16q0 21 86 38v-7l101 38h8l-16 16l-171 -31l-16 23q0 41 164 70l31 31l31 -8q53 12 78 39v31h-8q0 -31 -23 -31h-8q-23 0 -47 172l-7 7v327l7 47l-7 31l7 8l-15 15l-8 -7h-15l-47 15l-117 -15h-8l-62 31v31q0 39 319 86zM611 176v-15h16v15h-16z" />
    <glyph glyph-name="j" unicode="j" horiz-adv-x="927" 
d="M793 993h14l6 -8l7 8h21q129 0 129 -33l-21 -16l-81 8h-55v-16l28 -8l34 8l6 -8h7l95 16l41 -8h27v-16q0 -51 -183 -73v8l-163 -41l34 -236l13 -268q0 -99 -27 -154l21 -33v-8q-52 -43 -61 -81l13 -16q0 -21 -115 -49q-31 0 -68 41l-54 -16q-66 0 -129 219l-48 130v81
l27 33h21l27 -25l-7 -8v-8l20 -33v-8l-13 -24q7 -49 20 -49q0 57 21 57l13 -16v-33l-7 -32q11 -65 27 -65h14l-14 97v73l21 25l13 -16v-49q0 -179 48 -179l41 -8q67 157 67 276q-20 0 -20 16v17h7l-7 57v113l-7 90l7 24l-7 8v8l7 33l-7 8h-20l-543 -65l-7 8v24q0 25 48 25
v24q-40 0 -68 -32h-20l-14 16v24q65 63 475 122v-8q16 15 346 49zM793 952v-16h7v16h-7zM630 660v-49h7v49h-7zM630 570v-16h7v16h-7zM657 278l-20 -90q14 0 27 65v25h-7zM406 99v-8l14 -16v8zM617 50h6q28 12 28 25v8q-31 -16 -34 -33z" />
    <glyph glyph-name="k" unicode="k" horiz-adv-x="955" 
d="M145 993h6q17 0 25 -83l-6 -9l6 -84v-58l-6 -9l6 -8v-75l6 -34l-6 -25l69 -25l344 293q146 101 169 101h13l18 -26l57 26l12 -17v-9q0 -25 -44 -25l-6 -8l-37 -34v-8l50 17l6 -25q0 -25 -25 -25l-6 -9v-17h6l131 93h7l12 -17q0 -31 -332 -243q-173 -134 -206 -134l12 -17
q230 117 295 176l43 34l13 -17q-88 -124 -294 -210v-8q0 -12 162 -101l220 -175q131 -132 131 -176v-25l-25 -34h-56q-44 50 -451 201l-131 75q-58 36 -69 67l6 42h-19l-62 -42l6 -8v-67l6 -126l-19 -16h-6l-19 16v-8l19 -117l-19 -17h-12q-13 0 -13 42l-6 8h-6l-13 -16h-12
q-14 0 -32 175l7 26h-13q-26 -34 -50 -34l-18 34v25q11 30 37 42l31 -9v25q-44 0 -44 25v9q3 17 32 33q-32 122 -63 436l7 33v84l18 25q25 0 25 -83l6 -9h7l25 143h18l19 -17h6zM76 826l6 -25l-12 -51v-58l-7 -9l7 -8v-84l6 -92l-6 -8v-9q12 -32 12 -92v-17h13v59l-7 134
l7 8v9l-7 8v9l7 8l-7 42v184l-6 -8h-6zM145 792l-7 -42l7 -8l-7 -42l7 -92h6v184h-6zM577 675h6l69 59v8q-69 -45 -75 -67zM326 558v-9q42 23 50 51h-6zM189 558l-19 -34h19l12 17zM264 507v-8h6l19 8l-13 17zM339 466l12 -17l13 17v8h-6zM408 424l250 -126q-3 16 -225 151
h-7zM339 298l-6 -8v-9q126 -75 156 -75v17q-22 0 -150 75zM138 281l7 -142v-25h12v151l-12 16h-7zM508 198v-9h12v9h-12zM614 198v-9l132 -67q0 25 -126 76h-6zM821 147l62 -50h7v17l-44 33h-25z" />
    <glyph glyph-name="l" unicode="l" horiz-adv-x="968" 
d="M30 1012h21l15 -19l-7 -10l7 -28h7q0 38 15 38h7l29 -29q11 0 22 38l7 10h8l21 -29l-14 -113q0 -223 58 -490v-19l255 47h160l29 9l29 -9h131l7 -10l8 10h65l36 -38l-7 -9h-138l-29 9l-7 -9h-8l-58 9l-29 -9l-29 9h-7v-9l36 -10q313 -6 313 -56q-7 -29 -44 -29h-29
l-306 -28v-9h15v-10l7 10h102l102 9l7 -9h8l7 9q189 -16 189 -57l-15 -18l-65 18q-98 -37 -589 -75q-117 -16 -117 -38q-28 -104 -43 -113l-44 47v47h-15l-29 -28h-7q-15 0 -15 28l-36 -9l-7 28h-8l-21 -19h-22l-22 29v19q0 22 65 37l8 10v47h-51l-22 28v10q0 16 58 47v19
q-14 0 -36 377h7l-7 28l7 29v18h-7l7 95v75l-7 57zM110 691v-57q0 -114 58 -330l7 10h7q-65 290 -65 377h-7zM248 247v-18l211 37v19l-7 -9h-8l-7 9h-7zM510 285v-9h14v9h-14zM495 229v-10h95v10h-95zM139 210v-19h7v19h-7z" />
    <glyph glyph-name="m" unicode="m" horiz-adv-x="1109" 
d="M794 1140l13 -24l-20 -30l41 -100q34 -3 34 -24v-61q27 -258 55 -293l-7 -8l20 -69h14l-34 208q14 0 14 31l6 8h7l21 -24v-30q0 -104 102 -493l48 -162q19 0 28 -131v-15l-14 -16q-24 29 -27 78q-31 0 -41 76q-11 0 -41 62q-24 0 -28 54q-42 44 -102 254l-48 77v-16
q49 -95 89 -261l61 -116v-8l-20 -23h-14q0 31 -55 85q-150 354 -150 447q-76 -156 -96 -339q-23 -31 -34 -108l13 -54l-20 -15h-14l-48 46l-27 -8q-17 0 -34 100q-59 112 -165 231h-6v-7q89 -138 89 -239l-7 -8h-21q-13 1 -68 185q-100 130 -117 131l-34 -354l21 -47
q0 -38 -14 -38l7 -8v-8l-14 -15h-27q-14 0 -14 39q-9 0 -14 54q-27 0 -27 46q-27 0 -27 31l7 7l-7 70h-7l-7 -62l7 -8v-131l-14 -15h-13l-21 23v46l41 362q-14 34 -20 170q15 239 82 239q13 0 13 23l7 7h14l61 -61l28 7q13 -38 41 -38v-8l-14 -15q23 -90 103 -200
q37 -98 123 -178l55 -46q13 0 82 324q14 0 14 38q55 201 123 201l-14 92l7 8q12 54 55 54zM705 747q-14 -85 -69 -255h14l68 239v16h-13zM102 654l-13 -115l20 -39l-20 -8l7 -92h6l14 146v93zM629 469l-20 -61l7 -8h7l13 62v7h-7zM588 308v-16h7v16h-7z" />
    <glyph glyph-name="n" unicode="n" horiz-adv-x="879" 
d="M738 1006h8v-15l-8 -8v-7h15l45 22q68 -7 68 -22v-8q-60 -70 -60 -143h15q3 28 30 45l15 -15v-37q-27 0 -53 -271l8 -23l-8 -8l68 -482l-15 -15h-15q-17 0 -22 106h-8q0 -71 -15 -83l7 -23q-14 0 -67 -60h-8q-49 27 -135 121q-79 0 -204 158l-203 331h-8v-22h8l-8 -61
q40 -384 76 -384v-7l-15 -15h-31q-18 0 -22 75h-15l7 -91v-22q0 -41 -30 -60h-7q-15 0 -15 22l-8 8h-7l-46 -45q-26 0 -37 195q-13 0 -30 272l-8 7l8 30l-8 30q18 248 75 271q0 14 38 16v-31l60 53h8q11 0 45 -68v-15h-15q0 -44 60 -113q26 -80 188 -218v7q-93 110 -158 241
l-15 16v15l15 15h15q45 -42 166 -249q158 -175 158 -211h8v38q-30 36 -30 196v37l52 302q1 161 68 203zM60 629h15q0 46 38 121h-8q-45 -55 -45 -121zM663 464v-46l7 -52h-7l22 -76h8v15l-23 159h-7zM98 260v-158h15v143zM761 155v-23h7v23h-7zM761 110v-15h15v15h-15z" />
    <glyph glyph-name="o" unicode="o" horiz-adv-x="834" 
d="M624 1010q36 -16 40 -32l8 8h8q48 0 48 -32l-8 -25q37 -59 57 -177l-8 -8v-8q51 -102 80 -274v-65q0 -239 -306 -362q-89 -33 -89 -48h8l57 8l8 -8v-8q-46 -41 -81 -41h-32l-81 25l-40 -8h-72q-218 98 -218 273v65l8 104l-8 89q11 119 97 234q221 226 403 258zM535 929
v-16l129 -56v8l-40 72h-49zM430 744h-24v16l16 24v16h-8q-250 -142 -250 -427q57 -201 202 -201h32q218 40 218 161l8 129v81q-8 223 -81 257l-32 25h-32q-49 -40 -49 -81zM616 800q104 -333 104 -459v-48l-16 -73v-8h8l33 129v16l-9 40h9l-9 8v9l9 40l-17 48l8 41l-8 24
l8 8l-24 113v24q-43 0 -64 80l-8 8h-24zM801 454l-8 -32l8 -89h8l8 56l-8 33l8 24l-8 8h-8zM148 244v-16l48 -48h9v16q-25 0 -41 48h-16zM632 228l-8 -32l32 32h-24zM59 188v-8l33 -81h24v8q-43 80 -57 81zM422 131v-16q65 15 65 33v8q-35 -25 -65 -25zM156 83v-16
q16 -56 97 -56h8v8q-26 0 -81 64h-24zM277 51q36 -40 65 -40l169 48v8h-8z" />
    <glyph glyph-name="p" unicode="p" horiz-adv-x="827" 
d="M178 1016h24l24 -16h8l32 8l31 -16l8 8q217 -32 287 -79q81 -26 215 -183q47 -65 47 -120v-8q-29 -93 -143 -191q-192 -143 -302 -143h-96l-8 8h-8l-24 -64l56 -254l-24 -24h-16q-16 0 -16 24l-39 -8q-42 42 -56 87h-8l-8 -8h-8l8 -39v-16l-24 -24h-24q-17 0 -71 398
l-40 358v24l8 8l-8 7v104q0 38 64 40q8 39 55 39v40q0 16 40 16q0 24 16 24zM258 913l8 -8v-24h-24v24l-8 -8h-8l8 -64l-8 -8l8 -40v-215q33 -151 55 -151q138 15 287 128l24 39l24 64q0 98 -144 199l-95 48l-104 16h-23zM154 897v-32h24v32h-24zM67 857v-8l8 -40h-8
q12 -32 24 -32v72zM162 841l-8 -8v-8l16 -79l16 15q-4 80 -24 80zM600 841l119 -127v16q-28 57 -111 111h-8zM91 761v-15h7v15h-7zM671 690v-8l8 -48q-83 -167 -135 -167v-8h8q151 73 151 135v40q0 43 -32 56zM162 634l8 -151l8 -8h16l-16 159h-16zM329 364l-32 8l-8 -8
q12 -32 24 -32l48 24v-8q234 40 334 127v16q-198 -127 -366 -127zM329 244h8l-8 -39h-24v7q12 32 24 32z" />
    <glyph glyph-name="q" unicode="q" horiz-adv-x="996" 
d="M551 1006q14 0 29 -49q126 -13 126 -64l-7 -57q81 -96 81 -186v-178l-15 -121q237 -123 237 -178l-22 -16q0 -20 51 -41q0 -52 23 -73l-30 -32l-133 57h-15l7 -8v-25l-14 -16q-150 121 -259 121q-71 -144 -215 -217l-103 -9q-104 30 -104 73q-185 121 -185 218v122
l22 129l-7 32v25q26 174 111 283q86 97 214 153l37 33h15q39 0 67 -25q30 49 89 49zM602 909v-8h15v8h-15zM632 901v-8q0 -19 37 -25q-7 33 -37 33zM588 860v-8q0 -98 44 -315l-7 -8l7 -41v-72q0 -14 81 -49h30v24l15 89v138q-42 186 -74 186h-8q-14 0 -14 -24l-8 -9h-7
l-15 17l22 40zM469 788v-8q40 -97 74 -243h8l7 24q-24 178 -67 178v8l8 8v8zM188 318v-89l-7 -8q19 -102 81 -145h37q81 0 200 129q-56 33 -163 65l-7 8v24l22 25l66 -17l-7 8v17l15 32l-8 40l67 33l44 -8h8v8q-28 139 -104 340h-15q-162 -181 -214 -405zM247 747v-16l15 16
h-15zM232 723l-51 -97v-16h14l45 105v8h-8zM114 561q-44 -119 -44 -162v-48q11 0 37 162q14 0 14 40v8h-7zM602 488v-16h8v16h-8zM602 464v-57h8v57h-8zM765 302v-16h15v16h-15zM639 294v-8h15v8h-15zM669 278v-8h15v8h-15zM47 238q0 -67 45 -106v8l-30 106l-7 -8h-8z
M817 165q0 -18 52 -33l7 8v9zM299 -29v-8h37q66 0 185 89v16h-7q-168 -97 -215 -97z" />
    <glyph glyph-name="r" unicode="r" horiz-adv-x="1047" 
d="M126 1039h6q23 -13 23 -47h108l5 -8q22 16 63 16h56q70 -14 142 -63q30 0 63 -62q76 0 131 -140q-8 -257 -63 -257q-11 -31 -34 -31v-8q0 -15 34 -15q66 -63 295 -164q143 -88 165 -124v-24h-6q-105 70 -312 171q1 -11 131 -93q48 -36 108 -132v-8l-18 -23h-5
q-55 102 -278 233h-12q64 -75 210 -163l114 -132v-8l-11 -16h-6l-91 86l-34 -8q-104 36 -176 85l-409 226q-65 50 -114 117h-22l-6 -8h-6q16 -82 34 -358v-39l-11 -15h-11q-13 0 -17 39l-23 -24h-6q-11 0 -11 39q-11 0 -11 -23l-6 -8h-6q-22 15 -45 195l-34 210l-6 8v77
l-11 24v23l5 31l-5 8v8l5 8v7l-5 31l5 8l-5 39v133q0 15 -17 15l-6 8v15l40 63h11l17 -8v8q0 31 40 31q28 0 28 47zM149 891l11 -148l-5 -8q0 -109 22 -109l131 -47l51 16l6 -8q147 14 147 101v16h6q0 138 -204 179l-6 -8h-6l-51 23h-91l-5 -7h-6zM109 883l-11 -31l6 -24h5
l12 47l-6 8h-6zM620 891h23v-16h-11zM104 813v-8l17 -125h5v16q-11 117 -22 117zM546 758l12 -62l-12 -31l6 -8h6l11 47v31l-17 23h-6zM643 727q0 -49 -108 -171h6q53 14 125 109v23l-12 39h-11zM121 673v-16h5v16h-5zM495 486l80 -23q102 56 102 140h-6q-58 -63 -176 -109
v-8zM353 408v-16h17l-11 16h-6zM422 354q70 -63 130 -86v23l-113 63h-17zM626 229v-16h17l-11 16h-6zM649 213q0 -20 51 -31q0 18 -51 31zM779 136v-16l29 -8h5q0 16 -34 24zM825 104v-7h17v7h-17z" />
    <glyph glyph-name="s" unicode="s" horiz-adv-x="869" 
d="M532 1027h7l117 -109q53 -66 87 -66q66 -21 87 -44v-14l-14 -15l-102 37q-10 -44 -22 -44q-47 36 -73 36h-14l-37 -7v-22q190 -31 190 -65v-7l-15 -15q-41 25 -153 44l-22 -8q0 13 -95 30h-94l-44 -8l-36 8h-8q-24 0 -51 -22l44 -73l-7 -7h-8q-30 0 -80 43v-7
q0 -96 219 -189l262 -81q160 -41 160 -174q51 -50 51 -124q0 -86 -357 -124h-123q-265 31 -335 95q-62 73 -66 124q0 64 44 87l22 -7l43 43l22 -7l22 7q0 -29 44 -29v-7q0 -15 -44 -15l-7 -72q13 -37 94 -37v-7l80 51h8l43 -44h15q291 37 291 80q-18 34 -204 109l-298 153
q-139 105 -139 175v44q74 147 153 160l139 66zM291 838v-15h15l14 15h-29zM44 277l-8 -44q15 0 22 44h-14zM816 189l-15 -58l15 -14l22 21v37l-15 14h-7zM714 153h14l15 15v14h-7q-11 0 -22 -29zM95 160l29 -29v15l-15 29zM204 138v-7l15 -14h14v14zM269 124l-7 -7v-8l7 -7
h124v15h-51z" />
    <glyph glyph-name="t" unicode="t" horiz-adv-x="1099" 
d="M802 1013v-9l6 9h35l23 -19v-28h-18v-19l29 9h76l174 19l17 -38v-10q0 -30 -325 -133l-226 -77v-28l41 9l6 -9v-19q-15 -26 -18 -115q39 -384 76 -486l-35 -95h-6q-23 0 -23 95q-10 8 -35 152h-12l18 -76v-10l-12 -19l12 -114q-10 -67 -23 -67h-6q-18 26 -41 191h-6
l6 -48v-38q0 -19 -17 -19l-18 9l-11 -19h-6q-23 19 -23 58l6 47l-6 153v76l-12 77v86l-35 171h-5l-47 -19h-23l-17 29l11 28h-6q-20 -28 -86 -28l-18 19l-6 -10h-127l-35 39h-6q0 -58 -98 -58l-12 29q0 45 87 76v19q-17 0 -17 19v20l11 19h6q28 0 58 -29l261 67
q71 38 452 114h6zM790 966l12 -19h35l-12 19h-35zM524 889v-9h11v9h-11zM419 870v-9h18v9h-18zM599 775l6 -10h6q7 19 197 57l6 10v10h-6q-209 -29 -209 -67zM234 813v-10h46l-12 19zM164 794v-10h29v10h-29zM547 794v-10l11 -19h6v29h-17zM66 756v-10h23v10h-23zM379 737
v-10h11v10h-11zM512 240v-28h6v28h-6z" />
    <glyph glyph-name="u" unicode="u" horiz-adv-x="1133" 
d="M887 1014h18q30 0 63 -136l27 18q127 -74 127 -307v-18q0 -76 -45 -253v-9h9l81 63l18 -18v-9q-19 -47 -163 -135v-18l-9 -9l28 -27q0 -16 -127 -100q-93 -90 -153 -90h-55l-153 28l-54 -9q-274 0 -334 243l-109 208l-63 153l9 90v163q18 90 45 90h9l18 -18l-9 -54v-9h9
l18 36v18l-9 63l36 27h9l19 -18v-9l-10 -9l55 -307h18l-18 154q9 63 27 63h9q18 0 27 -108l-9 -9l18 -127h9l27 18h9l27 -27l-9 -63q0 -177 108 -316l118 -36h45q124 0 154 27l27 -18q72 106 99 244l-9 9l9 63l-9 54l9 27l-9 9v9l18 27l-9 64l9 72l-9 54h18l-9 45h-45v-36
h-18l-27 90l9 9h9q18 0 18 -36h27l9 54l-9 27zM851 860h18v-9h-18v9zM986 770v-54h18l-9 54h-9zM932 634v-235q0 -50 -81 -189h18v-9q70 0 81 126l-9 199l9 27l-9 36h9l-9 45h-9zM228 580v-18h9v18h-9z" />
    <glyph glyph-name="v" unicode="v" horiz-adv-x="948" 
d="M943 1071l15 -22v-8q-30 -34 -30 -52l15 -15v-8q-27 -27 -60 -105v-7l23 15l7 -8v-15q-94 -193 -135 -367q-75 -299 -82 -383l-45 -37l-38 37q0 -60 -52 -120l-83 38l-7 7h-8q0 -45 -37 -45q-30 12 -30 23v7l15 23v30q-30 41 -150 322q-15 0 -15 45q-102 175 -188 240
l-45 60v8l23 30q-68 112 -68 157v8l15 15h8q22 0 22 -53q15 0 15 23l8 7h15q45 -37 45 -82h15q15 0 15 22l-23 53q18 67 30 67h15q25 0 45 -97q45 -23 75 -83l-15 -15q0 17 -37 23v-8q0 -75 120 -232q0 -21 75 -113q60 -103 120 -157h7q53 264 83 525v37q-30 34 -30 83
q11 52 37 52q30 0 45 -97l-7 -68v-60q11 0 52 180q21 60 53 60q10 53 22 53h15l30 -23l-7 -37v-23q75 27 75 68zM43 854v-23h8v23h-8zM373 419v-15l15 -15h8q-12 30 -23 30zM411 366v-7q20 -48 52 -68h15l-52 75h-15zM426 141q11 -30 22 -30v53h-7q-15 0 -15 -23z" />
    <glyph glyph-name="w" unicode="w" horiz-adv-x="1082" 
d="M905 1096q29 -13 56 -57l19 6l13 -18l-13 -19l13 -13q19 32 51 32l19 18l19 -18v-13q-38 -58 -70 -284l6 -7q-25 -202 -88 -442l-13 -57l38 -82v-25h-19q-17 0 -25 50h-6q0 -50 -19 -88l6 -19l-19 -13q-38 0 -38 45q-57 0 -57 75q-112 150 -151 228l-7 6h-6v-6l107 -247
l-6 -6h-6q-61 65 -120 221q-19 10 -19 57q-20 -19 -57 -101v-38q-6 -108 -76 -227q0 -26 -31 -38q-19 0 -19 -13l6 -18h-6l-32 6q-18 -38 -63 -38q0 -32 -19 -32h-6l-13 13v57l-19 25l6 31v7q-258 517 -258 581l12 31l-19 83l7 6h6l69 -221l25 -32h13v7q-34 88 -44 88
q-14 0 -19 69l6 7h6l-12 38l19 50l-13 51v19q0 10 51 31q12 0 69 -63v-38q0 -74 114 -265q76 -139 76 -158h6q78 73 95 139l-7 6q21 133 70 133l19 -6l6 6v6l-19 19v13l19 19h7l82 -82l19 12q69 -49 107 -132l70 -83h6v45l6 57l-6 6l31 303q-25 9 -25 57v57q38 56 57 183h13
zM968 963v-19h6v19h-6zM955 906l-19 -69l7 -6h6l12 69v6h-6zM980 837v-13h7v13h-7zM968 774v-6l-7 -76h13v44l6 6l-6 7v6l6 19h-12zM955 660v-63h6l7 44l-7 19h-6zM109 591v-13h6v13h-6zM943 559v-44h6l6 57zM96 490v-13q72 -174 120 -215h6q-69 108 -120 228h-6zM658 433
q47 -98 152 -215v19q-72 125 -145 196h-7zM298 351v-19h13v6zM469 351v-13l12 13h-12zM797 344v-6h13v6h-13zM311 325v-25l12 -13h7v7l-13 31h-6zM222 199v-13q15 -38 26 -38v13l-19 38h-7zM450 180v-13h6v13h-6zM437 155v-19h6v19h-6zM412 79v-13h13zM286 54v-38
q15 0 18 50h-6z" />
    <glyph glyph-name="x" unicode="x" horiz-adv-x="1133" 
d="M985 1010l20 -25l45 17v-17q-3 -33 -103 -81l-135 -130v-8h6q117 114 225 179l7 -8v-9l-71 -73h6l52 16v-8l26 -8l6 -8v-16q-121 -80 -270 -244q133 -104 238 -212q129 -103 129 -154l-7 -9h-13q-131 147 -186 163h-32q151 -191 238 -211l19 -25q0 -57 -45 -57l6 -8v-16
l-12 -16q-97 0 -483 333l-20 25q-43 0 -218 -188l-33 -65v-8h39v-24l-13 -25h13v17h13l13 -17q-34 -40 -58 -40h-26q0 -49 -90 -49l-26 -32h-32l-19 16q-11 -33 -45 -33q-20 0 -20 57l-32 8l-13 -16h-6l-32 41v16q0 31 38 97l-6 33q46 59 328 309q0 16 26 16q-83 69 -161 98
q-256 152 -289 220v8l19 24l45 -40h6v8q-90 95 -90 130l7 8h32l58 -65h12q0 24 13 24h7q21 0 71 -40h6l19 16h26l245 -114l161 -98h25l303 310zM284 806l32 -32h26v8q-7 24 -39 24h-19zM245 766q6 -21 142 -122h13q-121 122 -155 122zM380 758v-9q0 -28 103 -97v8
q-8 22 -103 98zM503 709l64 -74l19 9v24zM606 595h32v24h-7q-25 -12 -25 -24zM696 546h6l13 16h-6zM754 546l-13 -24q94 -74 174 -106h19q-136 123 -180 130zM200 229l7 -8v-9q-15 -39 -91 -81v-33h7l380 375v8h-13v8q-127 -95 -290 -260zM168 74v-8q166 170 167 187h-6z
M284 74v-16h45l39 16v8q-26 0 -26 49h-7z" />
    <glyph glyph-name="y" unicode="y" horiz-adv-x="1010" 
d="M1019 1054h30l14 -14l-14 -20l7 -27q-24 0 -88 -75h15l58 34h8l14 -13v-14q-321 -334 -321 -366l-350 -441v-7q29 0 29 -13q-26 -51 -87 -95l-44 13l-15 -13h-14l-22 20v21q22 25 22 61v20h-15q0 -30 -109 -142q0 -27 -37 -48h-7l-15 14v7l59 81l-15 20q106 172 350 482
v6q-13 25 -44 34l-21 -20h-8q-14 0 -14 34q-32 59 -176 122q-124 78 -175 149l8 7v7q0 12 -51 47l-7 7v7l7 27l-15 20v34l15 14h21l22 -21l-7 -6q19 -55 37 -55h7v7l-7 34l7 7h29l80 -82l139 -67h7q0 33 15 33h7q20 0 44 -94l168 -136q243 253 270 366l7 7h37l36 -34h7z
M122 871v-7h15v7h-15zM144 857l14 -13v13h-14zM282 823v-13l44 -27v20q-18 0 -36 20h-8zM428 715l30 -27h7l-29 27h-8zM640 688l-36 -48v-6h14l29 47v7h-7zM501 654l8 -20h14v6l-14 14h-8zM662 613v-7h14l15 28v6zM304 159v-7h8q16 0 36 68z" />
    <glyph glyph-name="z" unicode="z" horiz-adv-x="1251" 
d="M417 1011l20 -9l34 9h14v-9l48 9h410q16 -19 130 -46v-9l-14 -37h82l28 -27l41 18l7 -9v-18q0 -37 -130 -37v-9l-41 9l-89 -9l-7 9q-41 -67 -96 -91v-27q116 100 205 100l7 -9v-9l-34 -37q0 -27 -164 -109q-193 -122 -438 -329v-18l103 18h164l20 9l35 -9h232l226 -45
l7 -9v-10q0 -18 -55 -18l7 -9v-27h-7l-356 27h-27l-219 -9q0 -18 -34 -18v-19l226 28l6 -9l48 9h21q192 0 431 -73q35 0 68 -73v-9l-14 -19h-13q-168 55 -342 55h-212l-205 -36v9q-173 -30 -205 -64h-76q-26 -36 -68 -36l-21 -28h-6q-14 0 -14 28h-7l-20 -18h-21l-14 18v9
l55 73q0 18 -34 18l-21 27l-47 -27q-35 11 -35 27v28q0 22 137 63v19l-14 27v18q0 46 103 92l185 136l259 338v9l-280 -18v9l-7 -9h-7l-20 9l-103 -9h-150l-21 -18h-61l-14 18v18l14 28q-48 12 -48 27v27l14 19h7q47 -3 47 -19l21 10l-7 45l14 18zM294 929h-83l14 -19h14
l41 9l20 -9l28 9v19zM547 919h88l28 10l27 -10h14l13 19h-157zM717 673h14l27 37h-6zM430 408h14l267 256v9h-7q-166 -136 -274 -265zM423 271v-9h62v9h-14v10zM1128 271v-9h20v9h-20zM485 198v-9h14v9h-14zM225 144v-19h14v19h-14z" />
    <glyph glyph-name="braceleft" unicode="{" horiz-adv-x="684" 
 />
    <glyph glyph-name="bar" unicode="|" horiz-adv-x="532" 
 />
    <glyph glyph-name="braceright" unicode="}" horiz-adv-x="684" 
 />
    <glyph glyph-name="asciitilde" unicode="~" horiz-adv-x="1196" 
 />
    <glyph glyph-name="Adieresis" unicode="&#xc4;" horiz-adv-x="1366" 
 />
    <glyph glyph-name="Aring" unicode="&#xc5;" horiz-adv-x="1366" 
 />
    <glyph glyph-name="Ccedilla" unicode="&#xc7;" horiz-adv-x="1479" 
 />
    <glyph glyph-name="Eacute" unicode="&#xc9;" horiz-adv-x="1366" 
 />
    <glyph glyph-name="Ntilde" unicode="&#xd1;" horiz-adv-x="1479" 
 />
    <glyph glyph-name="Odieresis" unicode="&#xd6;" horiz-adv-x="1593" 
 />
    <glyph glyph-name="Udieresis" unicode="&#xdc;" horiz-adv-x="1479" 
 />
    <glyph glyph-name="aacute" unicode="&#xe1;" 
 />
    <glyph glyph-name="agrave" unicode="&#xe0;" 
 />
    <glyph glyph-name="acircumflex" unicode="&#xe2;" 
 />
    <glyph glyph-name="adieresis" unicode="&#xe4;" 
 />
    <glyph glyph-name="atilde" unicode="&#xe3;" 
 />
    <glyph glyph-name="aring" unicode="&#xe5;" 
 />
    <glyph glyph-name="ccedilla" unicode="&#xe7;" horiz-adv-x="1024" 
 />
    <glyph glyph-name="eacute" unicode="&#xe9;" 
 />
    <glyph glyph-name="egrave" unicode="&#xe8;" 
 />
    <glyph glyph-name="ecircumflex" unicode="&#xea;" 
 />
    <glyph glyph-name="edieresis" unicode="&#xeb;" 
 />
    <glyph glyph-name="iacute" unicode="&#xed;" horiz-adv-x="569" 
 />
    <glyph glyph-name="igrave" unicode="&#xec;" horiz-adv-x="569" 
 />
    <glyph glyph-name="icircumflex" unicode="&#xee;" horiz-adv-x="569" 
 />
    <glyph glyph-name="idieresis" unicode="&#xef;" horiz-adv-x="569" 
 />
    <glyph glyph-name="ntilde" unicode="&#xf1;" 
 />
    <glyph glyph-name="oacute" unicode="&#xf3;" 
 />
    <glyph glyph-name="ograve" unicode="&#xf2;" 
 />
    <glyph glyph-name="ocircumflex" unicode="&#xf4;" 
 />
    <glyph glyph-name="odieresis" unicode="&#xf6;" 
 />
    <glyph glyph-name="otilde" unicode="&#xf5;" 
 />
    <glyph glyph-name="uacute" unicode="&#xfa;" 
 />
    <glyph glyph-name="ugrave" unicode="&#xf9;" 
 />
    <glyph glyph-name="ucircumflex" unicode="&#xfb;" 
 />
    <glyph glyph-name="udieresis" unicode="&#xfc;" 
 />
    <glyph glyph-name="dagger" unicode="&#x2020;" 
 />
    <glyph glyph-name="degree" unicode="&#xb0;" horiz-adv-x="819" 
 />
    <glyph glyph-name="cent" unicode="&#xa2;" 
 />
    <glyph glyph-name="sterling" unicode="&#xa3;" 
 />
    <glyph glyph-name="section" unicode="&#xa7;" 
 />
    <glyph glyph-name="bullet" unicode="&#x2022;" horiz-adv-x="717" 
 />
    <glyph glyph-name="paragraph" unicode="&#xb6;" horiz-adv-x="1100" 
 />
    <glyph glyph-name="germandbls" unicode="&#xdf;" horiz-adv-x="1251" 
 />
    <glyph glyph-name="registered" unicode="&#xae;" horiz-adv-x="1509" 
 />
    <glyph glyph-name="copyright" unicode="&#xa9;" horiz-adv-x="1509" 
 />
    <glyph glyph-name="trademark" unicode="&#x2122;" horiz-adv-x="2048" 
 />
    <glyph glyph-name="acute" unicode="&#xb4;" horiz-adv-x="682" 
 />
    <glyph glyph-name="dieresis" unicode="&#xa8;" horiz-adv-x="682" 
 />
    <glyph glyph-name="notequal" unicode="&#x2260;" horiz-adv-x="1124" 
 />
    <glyph glyph-name="AE" unicode="&#xc6;" horiz-adv-x="2048" 
 />
    <glyph glyph-name="Oslash" unicode="&#xd8;" horiz-adv-x="1593" 
 />
    <glyph glyph-name="infinity" unicode="&#x221e;" horiz-adv-x="1460" 
 />
    <glyph glyph-name="plusminus" unicode="&#xb1;" horiz-adv-x="1124" 
 />
    <glyph glyph-name="lessequal" unicode="&#x2264;" horiz-adv-x="1124" 
 />
    <glyph glyph-name="greaterequal" unicode="&#x2265;" horiz-adv-x="1124" 
 />
    <glyph glyph-name="yen" unicode="&#xa5;" 
 />
    <glyph glyph-name="mu" unicode="&#xb5;" horiz-adv-x="1180" 
 />
    <glyph glyph-name="partialdiff" unicode="&#x2202;" horiz-adv-x="1012" 
 />
    <glyph glyph-name="summation" unicode="&#x2211;" horiz-adv-x="1460" 
 />
    <glyph glyph-name="product" unicode="&#x220f;" horiz-adv-x="1686" 
 />
    <glyph glyph-name="glyph155" horiz-adv-x="1124" 
 />
    <glyph glyph-name="integral" unicode="&#x222b;" horiz-adv-x="561" 
 />
    <glyph glyph-name="ordfeminine" unicode="&#xaa;" horiz-adv-x="758" 
 />
    <glyph glyph-name="ordmasculine" unicode="&#xba;" horiz-adv-x="748" 
 />
    <glyph glyph-name="Omega" unicode="&#x2126;" horiz-adv-x="1573" 
 />
    <glyph glyph-name="ae" unicode="&#xe6;" horiz-adv-x="1821" 
 />
    <glyph glyph-name="oslash" unicode="&#xf8;" horiz-adv-x="1251" 
 />
    <glyph glyph-name="questiondown" unicode="&#xbf;" horiz-adv-x="1251" 
 />
    <glyph glyph-name="exclamdown" unicode="&#xa1;" horiz-adv-x="682" 
 />
    <glyph glyph-name="logicalnot" unicode="&#xac;" horiz-adv-x="1196" 
 />
    <glyph glyph-name="radical" unicode="&#x221a;" horiz-adv-x="1124" 
 />
    <glyph glyph-name="florin" unicode="&#x192;" 
 />
    <glyph glyph-name="approxequal" unicode="&#x2248;" horiz-adv-x="1124" 
 />
    <glyph glyph-name="Delta" unicode="&#x2206;" horiz-adv-x="1253" 
 />
    <glyph glyph-name="guillemotleft" unicode="&#xab;" 
 />
    <glyph glyph-name="guillemotright" unicode="&#xbb;" 
 />
    <glyph glyph-name="ellipsis" unicode="&#x2026;" horiz-adv-x="2048" 
 />
    <glyph glyph-name="Agrave" unicode="&#xc0;" horiz-adv-x="1366" 
 />
    <glyph glyph-name="Atilde" unicode="&#xc3;" horiz-adv-x="1366" 
 />
    <glyph glyph-name="Otilde" unicode="&#xd5;" horiz-adv-x="1593" 
 />
    <glyph glyph-name="OE" unicode="&#x152;" horiz-adv-x="2048" 
 />
    <glyph glyph-name="oe" unicode="&#x153;" horiz-adv-x="1933" 
 />
    <glyph glyph-name="endash" unicode="&#x2013;" 
 />
    <glyph glyph-name="emdash" unicode="&#x2014;" horiz-adv-x="2048" 
 />
    <glyph glyph-name="quotedblleft" unicode="&#x201c;" horiz-adv-x="682" 
 />
    <glyph glyph-name="quotedblright" unicode="&#x201d;" horiz-adv-x="682" 
 />
    <glyph glyph-name="quoteleft" unicode="&#x2018;" horiz-adv-x="455" 
 />
    <glyph glyph-name="quoteright" unicode="&#x2019;" horiz-adv-x="455" 
 />
    <glyph glyph-name="divide" unicode="&#xf7;" horiz-adv-x="1124" 
 />
    <glyph glyph-name="lozenge" unicode="&#x25ca;" horiz-adv-x="1012" 
 />
    <glyph glyph-name="ydieresis" unicode="&#xff;" horiz-adv-x="1024" 
 />
    <glyph glyph-name="Ydieresis" unicode="&#x178;" horiz-adv-x="1366" 
 />
    <glyph glyph-name="fraction" unicode="&#x2044;" horiz-adv-x="342" 
 />
    <glyph glyph-name="fraction" unicode="&#x2215;" horiz-adv-x="342" 
 />
    <glyph glyph-name="Euro" unicode="&#x20ac;" 
 />
    <glyph glyph-name="guilsinglleft" unicode="&#x2039;" horiz-adv-x="682" 
 />
    <glyph glyph-name="guilsinglright" unicode="&#x203a;" horiz-adv-x="682" 
 />
    <glyph glyph-name="uniF001" unicode="&#xf001;" horiz-adv-x="1024" 
 />
    <glyph glyph-name="uniF001" unicode="&#xfb01;" horiz-adv-x="1024" 
 />
    <glyph glyph-name="uniF002" unicode="&#xf002;" horiz-adv-x="1024" 
 />
    <glyph glyph-name="uniF002" unicode="&#xfb02;" horiz-adv-x="1024" 
 />
    <glyph glyph-name="daggerdbl" unicode="&#x2021;" 
 />
    <glyph glyph-name="periodcentered" unicode="&#xb7;" horiz-adv-x="569" 
 />
    <glyph glyph-name="periodcentered" unicode="&#x2219;" horiz-adv-x="569" 
 />
    <glyph glyph-name="quotesinglbase" unicode="&#x201a;" horiz-adv-x="455" 
 />
    <glyph glyph-name="quotedblbase" unicode="&#x201e;" horiz-adv-x="682" 
 />
    <glyph glyph-name="perthousand" unicode="&#x2030;" horiz-adv-x="2048" 
 />
    <glyph glyph-name="Acircumflex" unicode="&#xc2;" horiz-adv-x="1366" 
 />
    <glyph glyph-name="Ecircumflex" unicode="&#xca;" horiz-adv-x="1366" 
 />
    <glyph glyph-name="Aacute" unicode="&#xc1;" horiz-adv-x="1366" 
 />
    <glyph glyph-name="Edieresis" unicode="&#xcb;" horiz-adv-x="1366" 
 />
    <glyph glyph-name="Egrave" unicode="&#xc8;" horiz-adv-x="1366" 
 />
    <glyph glyph-name="Iacute" unicode="&#xcd;" horiz-adv-x="569" 
 />
    <glyph glyph-name="Icircumflex" unicode="&#xce;" horiz-adv-x="569" 
 />
    <glyph glyph-name="Idieresis" unicode="&#xcf;" horiz-adv-x="569" 
 />
    <glyph glyph-name="Igrave" unicode="&#xcc;" horiz-adv-x="569" 
 />
    <glyph glyph-name="Oacute" unicode="&#xd3;" horiz-adv-x="1593" 
 />
    <glyph glyph-name="Ocircumflex" unicode="&#xd4;" horiz-adv-x="1593" 
 />
    <glyph glyph-name="Ograve" unicode="&#xd2;" horiz-adv-x="1593" 
 />
    <glyph glyph-name="Uacute" unicode="&#xda;" horiz-adv-x="1479" 
 />
    <glyph glyph-name="Ucircumflex" unicode="&#xdb;" horiz-adv-x="1479" 
 />
    <glyph glyph-name="Ugrave" unicode="&#xd9;" horiz-adv-x="1479" 
 />
    <glyph glyph-name="dotlessi" unicode="&#x131;" horiz-adv-x="569" 
 />
    <glyph glyph-name="circumflex" unicode="&#x2c6;" horiz-adv-x="682" 
 />
    <glyph glyph-name="tilde" unicode="&#x2dc;" horiz-adv-x="682" 
 />
    <glyph glyph-name="uni02C9" unicode="&#x2c9;" horiz-adv-x="682" 
 />
    <glyph glyph-name="breve" unicode="&#x2d8;" horiz-adv-x="682" 
 />
    <glyph glyph-name="dotaccent" unicode="&#x2d9;" horiz-adv-x="682" 
 />
    <glyph glyph-name="ring" unicode="&#x2da;" horiz-adv-x="682" 
 />
    <glyph glyph-name="cedilla" unicode="&#xb8;" horiz-adv-x="682" 
 />
    <glyph glyph-name="hungarumlaut" unicode="&#x2dd;" horiz-adv-x="682" 
 />
    <glyph glyph-name="ogonek" unicode="&#x2db;" horiz-adv-x="682" 
 />
    <glyph glyph-name="caron" unicode="&#x2c7;" horiz-adv-x="682" 
 />
    <glyph glyph-name="Lslash" unicode="&#x141;" 
 />
    <glyph glyph-name="lslash" unicode="&#x142;" horiz-adv-x="455" 
 />
    <glyph glyph-name="Scaron" unicode="&#x160;" horiz-adv-x="1366" 
 />
    <glyph glyph-name="scaron" unicode="&#x161;" horiz-adv-x="1024" 
 />
    <glyph glyph-name="Zcaron" unicode="&#x17d;" horiz-adv-x="1251" 
 />
    <glyph glyph-name="zcaron" unicode="&#x17e;" horiz-adv-x="1024" 
 />
    <glyph glyph-name="brokenbar" unicode="&#xa6;" horiz-adv-x="532" 
 />
    <glyph glyph-name="Eth" unicode="&#xd0;" horiz-adv-x="1479" 
 />
    <glyph glyph-name="eth" unicode="&#xf0;" 
 />
    <glyph glyph-name="Yacute" unicode="&#xdd;" horiz-adv-x="1366" 
 />
    <glyph glyph-name="yacute" unicode="&#xfd;" horiz-adv-x="1024" 
 />
    <glyph glyph-name="Thorn" unicode="&#xde;" horiz-adv-x="1366" 
 />
    <glyph glyph-name="thorn" unicode="&#xfe;" 
 />
    <glyph glyph-name="minus" unicode="&#x2212;" horiz-adv-x="1196" 
 />
    <glyph glyph-name="multiply" unicode="&#xd7;" horiz-adv-x="1196" 
 />
    <glyph glyph-name="uni00B9" unicode="&#xb9;" horiz-adv-x="682" 
 />
    <glyph glyph-name="uni00B2" unicode="&#xb2;" horiz-adv-x="682" 
 />
    <glyph glyph-name="uni00B3" unicode="&#xb3;" horiz-adv-x="682" 
 />
    <glyph glyph-name="onehalf" unicode="&#xbd;" horiz-adv-x="1708" 
 />
    <glyph glyph-name="onequarter" unicode="&#xbc;" horiz-adv-x="1708" 
 />
    <glyph glyph-name="threequarters" unicode="&#xbe;" horiz-adv-x="1708" 
 />
    <glyph glyph-name="franc" unicode="&#x20a3;" 
 />
    <glyph glyph-name="Gbreve" unicode="&#x11e;" horiz-adv-x="1593" 
 />
    <glyph glyph-name="gbreve" unicode="&#x11f;" 
 />
    <glyph glyph-name="Idotaccent" unicode="&#x130;" horiz-adv-x="569" 
 />
    <glyph glyph-name="Scedilla" unicode="&#x15e;" horiz-adv-x="1366" 
 />
    <glyph glyph-name="scedilla" unicode="&#x15f;" horiz-adv-x="1024" 
 />
    <glyph glyph-name="Cacute" unicode="&#x106;" horiz-adv-x="1479" 
 />
    <glyph glyph-name="cacute" unicode="&#x107;" horiz-adv-x="1024" 
 />
    <glyph glyph-name="Ccaron" unicode="&#x10c;" horiz-adv-x="1479" 
 />
    <glyph glyph-name="ccaron" unicode="&#x10d;" horiz-adv-x="1024" 
 />
    <glyph glyph-name="dcroat" unicode="&#x111;" 
 />
    <glyph glyph-name="currency" unicode="&#xa4;" 
 />
    <glyph glyph-name="macron" unicode="&#xaf;" horiz-adv-x="1131" 
 />
    <glyph glyph-name="Amacron" unicode="&#x100;" horiz-adv-x="1366" 
 />
    <glyph glyph-name="amacron" unicode="&#x101;" 
 />
    <glyph glyph-name="Abreve" unicode="&#x102;" horiz-adv-x="1366" 
 />
    <glyph glyph-name="abreve" unicode="&#x103;" 
 />
    <glyph glyph-name="Aogonek" unicode="&#x104;" horiz-adv-x="1366" 
 />
    <glyph glyph-name="aogonek" unicode="&#x105;" 
 />
    <glyph glyph-name="Ccircumflex" unicode="&#x108;" horiz-adv-x="1479" 
 />
    <glyph glyph-name="ccircumflex" unicode="&#x109;" horiz-adv-x="1024" 
 />
    <glyph glyph-name="Cdotaccent" unicode="&#x10a;" horiz-adv-x="1479" 
 />
    <glyph glyph-name="cdotaccent" unicode="&#x10b;" horiz-adv-x="1024" 
 />
    <glyph glyph-name="Dcaron" unicode="&#x10e;" horiz-adv-x="1479" 
 />
    <glyph glyph-name="dcaron" unicode="&#x10f;" horiz-adv-x="1259" 
 />
    <glyph glyph-name="Dcroat" unicode="&#x110;" horiz-adv-x="1479" 
 />
    <glyph glyph-name="Emacron" unicode="&#x112;" horiz-adv-x="1366" 
 />
    <glyph glyph-name="emacron" unicode="&#x113;" 
 />
    <glyph glyph-name="Ebreve" unicode="&#x114;" horiz-adv-x="1366" 
 />
    <glyph glyph-name="ebreve" unicode="&#x115;" 
 />
    <glyph glyph-name="Edotaccent" unicode="&#x116;" horiz-adv-x="1366" 
 />
    <glyph glyph-name="edotaccent" unicode="&#x117;" 
 />
    <glyph glyph-name="Eogonek" unicode="&#x118;" horiz-adv-x="1366" 
 />
    <glyph glyph-name="eogonek" unicode="&#x119;" 
 />
    <glyph glyph-name="Ecaron" unicode="&#x11a;" horiz-adv-x="1366" 
 />
    <glyph glyph-name="ecaron" unicode="&#x11b;" 
 />
    <glyph glyph-name="Gcircumflex" unicode="&#x11c;" horiz-adv-x="1593" 
 />
    <glyph glyph-name="gcircumflex" unicode="&#x11d;" 
 />
    <glyph glyph-name="Gdotaccent" unicode="&#x120;" horiz-adv-x="1593" 
 />
    <glyph glyph-name="gdotaccent" unicode="&#x121;" 
 />
    <glyph glyph-name="Gcommaaccent" unicode="&#x122;" horiz-adv-x="1593" 
 />
    <glyph glyph-name="gcommaaccent" unicode="&#x123;" 
 />
    <glyph glyph-name="Hcircumflex" unicode="&#x124;" horiz-adv-x="1479" 
 />
    <glyph glyph-name="hcircumflex" unicode="&#x125;" 
 />
    <glyph glyph-name="Hbar" unicode="&#x126;" horiz-adv-x="1479" 
 />
    <glyph glyph-name="hbar" unicode="&#x127;" 
 />
    <glyph glyph-name="Itilde" unicode="&#x128;" horiz-adv-x="569" 
 />
    <glyph glyph-name="itilde" unicode="&#x129;" horiz-adv-x="569" 
 />
    <glyph glyph-name="Imacron" unicode="&#x12a;" horiz-adv-x="569" 
 />
    <glyph glyph-name="imacron" unicode="&#x12b;" horiz-adv-x="569" 
 />
    <glyph glyph-name="Ibreve" unicode="&#x12c;" horiz-adv-x="569" 
 />
    <glyph glyph-name="ibreve" unicode="&#x12d;" horiz-adv-x="569" 
 />
    <glyph glyph-name="Iogonek" unicode="&#x12e;" horiz-adv-x="569" 
 />
    <glyph glyph-name="iogonek" unicode="&#x12f;" horiz-adv-x="455" 
 />
    <glyph glyph-name="IJ" unicode="&#x132;" horiz-adv-x="1505" 
 />
    <glyph glyph-name="ij" unicode="&#x133;" horiz-adv-x="909" 
 />
    <glyph glyph-name="Jcircumflex" unicode="&#x134;" horiz-adv-x="1024" 
 />
    <glyph glyph-name="jcircumflex" unicode="&#x135;" horiz-adv-x="455" 
 />
    <glyph glyph-name="Kcommaaccent" unicode="&#x136;" horiz-adv-x="1366" 
 />
    <glyph glyph-name="kcommaaccent" unicode="&#x137;" horiz-adv-x="1024" 
 />
    <glyph glyph-name="kgreenlandic" unicode="&#x138;" horiz-adv-x="1024" 
 />
    <glyph glyph-name="Lacute" unicode="&#x139;" 
 />
    <glyph glyph-name="lacute" unicode="&#x13a;" horiz-adv-x="455" 
 />
    <glyph glyph-name="Lcommaaccent" unicode="&#x13b;" 
 />
    <glyph glyph-name="lcommaaccent" unicode="&#x13c;" horiz-adv-x="455" 
 />
    <glyph glyph-name="Lcaron" unicode="&#x13d;" 
 />
    <glyph glyph-name="lcaron" unicode="&#x13e;" horiz-adv-x="597" 
 />
    <glyph glyph-name="Ldot" unicode="&#x13f;" 
 />
    <glyph glyph-name="ldot" unicode="&#x140;" horiz-adv-x="684" 
 />
    <glyph glyph-name="Nacute" unicode="&#x143;" horiz-adv-x="1479" 
 />
    <glyph glyph-name="nacute" unicode="&#x144;" 
 />
    <glyph glyph-name="Ncommaaccent" unicode="&#x145;" horiz-adv-x="1479" 
 />
    <glyph glyph-name="ncommaaccent" unicode="&#x146;" 
 />
    <glyph glyph-name="Ncaron" unicode="&#x147;" horiz-adv-x="1479" 
 />
    <glyph glyph-name="ncaron" unicode="&#x148;" 
 />
    <glyph glyph-name="napostrophe" unicode="&#x149;" horiz-adv-x="1237" 
 />
    <glyph glyph-name="Eng" unicode="&#x14a;" horiz-adv-x="1481" 
 />
    <glyph glyph-name="eng" unicode="&#x14b;" 
 />
    <glyph glyph-name="Omacron" unicode="&#x14c;" horiz-adv-x="1593" 
 />
    <glyph glyph-name="omacron" unicode="&#x14d;" 
 />
    <glyph glyph-name="Obreve" unicode="&#x14e;" horiz-adv-x="1593" 
 />
    <glyph glyph-name="obreve" unicode="&#x14f;" 
 />
    <glyph glyph-name="Ohungarumlaut" unicode="&#x150;" horiz-adv-x="1593" 
 />
    <glyph glyph-name="ohungarumlaut" unicode="&#x151;" 
 />
    <glyph glyph-name="Racute" unicode="&#x154;" horiz-adv-x="1479" 
 />
    <glyph glyph-name="racute" unicode="&#x155;" horiz-adv-x="682" 
 />
    <glyph glyph-name="Rcommaaccent" unicode="&#x156;" horiz-adv-x="1479" 
 />
    <glyph glyph-name="rcommaaccent" unicode="&#x157;" horiz-adv-x="682" 
 />
    <glyph glyph-name="Rcaron" unicode="&#x158;" horiz-adv-x="1479" 
 />
    <glyph glyph-name="rcaron" unicode="&#x159;" horiz-adv-x="682" 
 />
    <glyph glyph-name="Sacute" unicode="&#x15a;" horiz-adv-x="1366" 
 />
    <glyph glyph-name="sacute" unicode="&#x15b;" horiz-adv-x="1024" 
 />
    <glyph glyph-name="Scircumflex" unicode="&#x15c;" horiz-adv-x="1366" 
 />
    <glyph glyph-name="scircumflex" unicode="&#x15d;" horiz-adv-x="1024" 
 />
    <glyph glyph-name="Tcommaaccent" unicode="&#x162;" horiz-adv-x="1251" 
 />
    <glyph glyph-name="tcommaaccent" unicode="&#x163;" horiz-adv-x="569" 
 />
    <glyph glyph-name="Tcaron" unicode="&#x164;" horiz-adv-x="1251" 
 />
    <glyph glyph-name="tcaron" unicode="&#x165;" horiz-adv-x="768" 
 />
    <glyph glyph-name="Tbar" unicode="&#x166;" horiz-adv-x="1251" 
 />
    <glyph glyph-name="tbar" unicode="&#x167;" horiz-adv-x="569" 
 />
    <glyph glyph-name="Utilde" unicode="&#x168;" horiz-adv-x="1479" 
 />
    <glyph glyph-name="utilde" unicode="&#x169;" 
 />
    <glyph glyph-name="Umacron" unicode="&#x16a;" horiz-adv-x="1479" 
 />
    <glyph glyph-name="umacron" unicode="&#x16b;" 
 />
    <glyph glyph-name="Ubreve" unicode="&#x16c;" horiz-adv-x="1479" 
 />
    <glyph glyph-name="ubreve" unicode="&#x16d;" 
 />
    <glyph glyph-name="Uring" unicode="&#x16e;" horiz-adv-x="1479" 
 />
    <glyph glyph-name="uring" unicode="&#x16f;" 
 />
    <glyph glyph-name="Uhungarumlaut" unicode="&#x170;" horiz-adv-x="1479" 
 />
    <glyph glyph-name="uhungarumlaut" unicode="&#x171;" 
 />
    <glyph glyph-name="Uogonek" unicode="&#x172;" horiz-adv-x="1479" 
 />
    <glyph glyph-name="uogonek" unicode="&#x173;" 
 />
    <glyph glyph-name="Wcircumflex" unicode="&#x174;" horiz-adv-x="1933" 
 />
    <glyph glyph-name="wcircumflex" unicode="&#x175;" horiz-adv-x="1479" 
 />
    <glyph glyph-name="Ycircumflex" unicode="&#x176;" horiz-adv-x="1366" 
 />
    <glyph glyph-name="ycircumflex" unicode="&#x177;" horiz-adv-x="1024" 
 />
    <glyph glyph-name="Zacute" unicode="&#x179;" horiz-adv-x="1251" 
 />
    <glyph glyph-name="zacute" unicode="&#x17a;" horiz-adv-x="1024" 
 />
    <glyph glyph-name="Zdotaccent" unicode="&#x17b;" horiz-adv-x="1251" 
 />
    <glyph glyph-name="zdotaccent" unicode="&#x17c;" horiz-adv-x="1024" 
 />
    <glyph glyph-name="longs" unicode="&#x17f;" horiz-adv-x="455" 
 />
    <glyph glyph-name="Aringacute" unicode="&#x1fa;" horiz-adv-x="1366" 
 />
    <glyph glyph-name="aringacute" unicode="&#x1fb;" 
 />
    <glyph glyph-name="AEacute" unicode="&#x1fc;" horiz-adv-x="2048" 
 />
    <glyph glyph-name="aeacute" unicode="&#x1fd;" horiz-adv-x="1821" 
 />
    <glyph glyph-name="Oslashacute" unicode="&#x1fe;" horiz-adv-x="1593" 
 />
    <glyph glyph-name="oslashacute" unicode="&#x1ff;" horiz-adv-x="1251" 
 />
    <glyph glyph-name="tonos" unicode="&#x384;" horiz-adv-x="682" 
 />
    <glyph glyph-name="dieresistonos" unicode="&#x385;" horiz-adv-x="682" 
 />
    <glyph glyph-name="Alphatonos" unicode="&#x386;" horiz-adv-x="1367" 
 />
    <glyph glyph-name="anoteleia" unicode="&#x387;" horiz-adv-x="569" 
 />
    <glyph glyph-name="Epsilontonos" unicode="&#x388;" horiz-adv-x="1606" 
 />
    <glyph glyph-name="Etatonos" unicode="&#x389;" horiz-adv-x="1716" 
 />
    <glyph glyph-name="Iotatonos" unicode="&#x38a;" horiz-adv-x="786" 
 />
    <glyph glyph-name="Omicrontonos" unicode="&#x38c;" horiz-adv-x="1586" 
 />
    <glyph glyph-name="Upsilontonos" unicode="&#x38e;" horiz-adv-x="1752" 
 />
    <glyph glyph-name="Omegatonos" unicode="&#x38f;" horiz-adv-x="1541" 
 />
    <glyph glyph-name="iotadieresistonos" unicode="&#x390;" horiz-adv-x="455" 
 />
    <glyph glyph-name="Alpha" unicode="&#x391;" horiz-adv-x="1366" 
 />
    <glyph glyph-name="Beta" unicode="&#x392;" horiz-adv-x="1366" 
 />
    <glyph glyph-name="Gamma" unicode="&#x393;" horiz-adv-x="1128" 
 />
    <glyph glyph-name="uni0394" unicode="&#x394;" horiz-adv-x="1368" 
 />
    <glyph glyph-name="Epsilon" unicode="&#x395;" horiz-adv-x="1366" 
 />
    <glyph glyph-name="Zeta" unicode="&#x396;" horiz-adv-x="1251" 
 />
    <glyph glyph-name="Eta" unicode="&#x397;" horiz-adv-x="1479" 
 />
    <glyph glyph-name="Theta" unicode="&#x398;" horiz-adv-x="1593" 
 />
    <glyph glyph-name="Iota" unicode="&#x399;" horiz-adv-x="569" 
 />
    <glyph glyph-name="Kappa" unicode="&#x39a;" horiz-adv-x="1366" 
 />
    <glyph glyph-name="Lambda" unicode="&#x39b;" horiz-adv-x="1368" 
 />
    <glyph glyph-name="Mu" unicode="&#x39c;" horiz-adv-x="1706" 
 />
    <glyph glyph-name="Nu" unicode="&#x39d;" horiz-adv-x="1479" 
 />
    <glyph glyph-name="Xi" unicode="&#x39e;" horiz-adv-x="1331" 
 />
    <glyph glyph-name="Omicron" unicode="&#x39f;" horiz-adv-x="1593" 
 />
    <glyph glyph-name="Pi" unicode="&#x3a0;" horiz-adv-x="1479" 
 />
    <glyph glyph-name="Rho" unicode="&#x3a1;" horiz-adv-x="1366" 
 />
    <glyph glyph-name="Sigma" unicode="&#x3a3;" horiz-adv-x="1266" 
 />
    <glyph glyph-name="Tau" unicode="&#x3a4;" horiz-adv-x="1251" 
 />
    <glyph glyph-name="Upsilon" unicode="&#x3a5;" horiz-adv-x="1366" 
 />
    <glyph glyph-name="Phi" unicode="&#x3a6;" horiz-adv-x="1634" 
 />
    <glyph glyph-name="Chi" unicode="&#x3a7;" horiz-adv-x="1366" 
 />
    <glyph glyph-name="Psi" unicode="&#x3a8;" horiz-adv-x="1711" 
 />
    <glyph glyph-name="uni03A9" unicode="&#x3a9;" horiz-adv-x="1531" 
 />
    <glyph glyph-name="Iotadieresis" unicode="&#x3aa;" horiz-adv-x="569" 
 />
    <glyph glyph-name="Upsilondieresis" unicode="&#x3ab;" horiz-adv-x="1366" 
 />
    <glyph glyph-name="alphatonos" unicode="&#x3ac;" horiz-adv-x="1184" 
 />
    <glyph glyph-name="epsilontonos" unicode="&#x3ad;" horiz-adv-x="913" 
 />
    <glyph glyph-name="etatonos" unicode="&#x3ae;" 
 />
    <glyph glyph-name="iotatonos" unicode="&#x3af;" horiz-adv-x="455" 
 />
    <glyph glyph-name="upsilondieresistonos" unicode="&#x3b0;" horiz-adv-x="1120" 
 />
    <glyph glyph-name="alpha" unicode="&#x3b1;" horiz-adv-x="1184" 
 />
    <glyph glyph-name="beta" unicode="&#x3b2;" horiz-adv-x="1178" 
 />
    <glyph glyph-name="gamma" unicode="&#x3b3;" horiz-adv-x="1024" 
 />
    <glyph glyph-name="delta" unicode="&#x3b4;" horiz-adv-x="1140" 
 />
    <glyph glyph-name="epsilon" unicode="&#x3b5;" horiz-adv-x="913" 
 />
    <glyph glyph-name="zeta" unicode="&#x3b6;" horiz-adv-x="903" 
 />
    <glyph glyph-name="eta" unicode="&#x3b7;" 
 />
    <glyph glyph-name="theta" unicode="&#x3b8;" 
 />
    <glyph glyph-name="iota" unicode="&#x3b9;" horiz-adv-x="455" 
 />
    <glyph glyph-name="kappa" unicode="&#x3ba;" horiz-adv-x="1024" 
 />
    <glyph glyph-name="lambda" unicode="&#x3bb;" horiz-adv-x="1024" 
 />
    <glyph glyph-name="uni03BC" unicode="&#x3bc;" horiz-adv-x="1180" 
 />
    <glyph glyph-name="nu" unicode="&#x3bd;" horiz-adv-x="1024" 
 />
    <glyph glyph-name="xi" unicode="&#x3be;" horiz-adv-x="917" 
 />
    <glyph glyph-name="omicron" unicode="&#x3bf;" 
 />
    <glyph glyph-name="pi" unicode="&#x3c0;" horiz-adv-x="1413" 
 />
    <glyph glyph-name="rho" unicode="&#x3c1;" horiz-adv-x="1165" 
 />
    <glyph glyph-name="sigma1" unicode="&#x3c2;" horiz-adv-x="987" 
 />
    <glyph glyph-name="sigma" unicode="&#x3c3;" horiz-adv-x="1264" 
 />
    <glyph glyph-name="tau" unicode="&#x3c4;" horiz-adv-x="809" 
 />
    <glyph glyph-name="upsilon" unicode="&#x3c5;" horiz-adv-x="1120" 
 />
    <glyph glyph-name="phi" unicode="&#x3c6;" horiz-adv-x="1328" 
 />
    <glyph glyph-name="chi" unicode="&#x3c7;" horiz-adv-x="1075" 
 />
    <glyph glyph-name="psi" unicode="&#x3c8;" horiz-adv-x="1460" 
 />
    <glyph glyph-name="omega" unicode="&#x3c9;" horiz-adv-x="1599" 
 />
    <glyph glyph-name="iotadieresis" unicode="&#x3ca;" horiz-adv-x="455" 
 />
    <glyph glyph-name="upsilondieresis" unicode="&#x3cb;" horiz-adv-x="1120" 
 />
    <glyph glyph-name="omicrontonos" unicode="&#x3cc;" 
 />
    <glyph glyph-name="upsilontonos" unicode="&#x3cd;" horiz-adv-x="1120" 
 />
    <glyph glyph-name="omegatonos" unicode="&#x3ce;" horiz-adv-x="1599" 
 />
    <glyph glyph-name="afii10023" unicode="&#x401;" horiz-adv-x="1367" 
 />
    <glyph glyph-name="afii10051" unicode="&#x402;" horiz-adv-x="1771" 
 />
    <glyph glyph-name="afii10052" unicode="&#x403;" horiz-adv-x="1109" 
 />
    <glyph glyph-name="afii10053" unicode="&#x404;" horiz-adv-x="1472" 
 />
    <glyph glyph-name="afii10054" unicode="&#x405;" horiz-adv-x="1366" 
 />
    <glyph glyph-name="afii10055" unicode="&#x406;" horiz-adv-x="569" 
 />
    <glyph glyph-name="afii10056" unicode="&#x407;" horiz-adv-x="569" 
 />
    <glyph glyph-name="afii10057" unicode="&#x408;" horiz-adv-x="1024" 
 />
    <glyph glyph-name="afii10058" unicode="&#x409;" horiz-adv-x="2165" 
 />
    <glyph glyph-name="afii10059" unicode="&#x40a;" horiz-adv-x="2069" 
 />
    <glyph glyph-name="afii10060" unicode="&#x40b;" horiz-adv-x="1749" 
 />
    <glyph glyph-name="afii10061" unicode="&#x40c;" horiz-adv-x="1193" 
 />
    <glyph glyph-name="afii10062" unicode="&#x40e;" horiz-adv-x="1301" 
 />
    <glyph glyph-name="afii10145" unicode="&#x40f;" horiz-adv-x="1472" 
 />
    <glyph glyph-name="afii10017" unicode="&#x410;" horiz-adv-x="1366" 
 />
    <glyph glyph-name="afii10018" unicode="&#x411;" horiz-adv-x="1344" 
 />
    <glyph glyph-name="afii10019" unicode="&#x412;" horiz-adv-x="1366" 
 />
    <glyph glyph-name="afii10020" unicode="&#x413;" horiz-adv-x="1109" 
 />
    <glyph glyph-name="afii10021" unicode="&#x414;" horiz-adv-x="1387" 
 />
    <glyph glyph-name="afii10022" unicode="&#x415;" horiz-adv-x="1366" 
 />
    <glyph glyph-name="afii10024" unicode="&#x416;" horiz-adv-x="1891" 
 />
    <glyph glyph-name="afii10025" unicode="&#x417;" horiz-adv-x="1237" 
 />
    <glyph glyph-name="afii10026" unicode="&#x418;" horiz-adv-x="1472" 
 />
    <glyph glyph-name="afii10027" unicode="&#x419;" horiz-adv-x="1472" 
 />
    <glyph glyph-name="afii10028" unicode="&#x41a;" horiz-adv-x="1193" 
 />
    <glyph glyph-name="afii10029" unicode="&#x41b;" horiz-adv-x="1344" 
 />
    <glyph glyph-name="afii10030" unicode="&#x41c;" horiz-adv-x="1706" 
 />
    <glyph glyph-name="afii10031" unicode="&#x41d;" horiz-adv-x="1479" 
 />
    <glyph glyph-name="afii10032" unicode="&#x41e;" horiz-adv-x="1593" 
 />
    <glyph glyph-name="afii10033" unicode="&#x41f;" horiz-adv-x="1472" 
 />
    <glyph glyph-name="afii10034" unicode="&#x420;" horiz-adv-x="1366" 
 />
    <glyph glyph-name="afii10035" unicode="&#x421;" horiz-adv-x="1479" 
 />
    <glyph glyph-name="afii10036" unicode="&#x422;" horiz-adv-x="1251" 
 />
    <glyph glyph-name="afii10037" unicode="&#x423;" horiz-adv-x="1301" 
 />
    <glyph glyph-name="afii10038" unicode="&#x424;" horiz-adv-x="1557" 
 />
    <glyph glyph-name="afii10039" unicode="&#x425;" horiz-adv-x="1366" 
 />
    <glyph glyph-name="afii10040" unicode="&#x426;" horiz-adv-x="1515" 
 />
    <glyph glyph-name="afii10041" unicode="&#x427;" horiz-adv-x="1365" 
 />
    <glyph glyph-name="afii10042" unicode="&#x428;" horiz-adv-x="1877" 
 />
    <glyph glyph-name="afii10043" unicode="&#x429;" horiz-adv-x="1920" 
 />
    <glyph glyph-name="afii10044" unicode="&#x42a;" horiz-adv-x="1621" 
 />
    <glyph glyph-name="afii10045" unicode="&#x42b;" horiz-adv-x="1813" 
 />
    <glyph glyph-name="afii10046" unicode="&#x42c;" horiz-adv-x="1344" 
 />
    <glyph glyph-name="afii10047" unicode="&#x42d;" horiz-adv-x="1472" 
 />
    <glyph glyph-name="afii10048" unicode="&#x42e;" horiz-adv-x="2069" 
 />
    <glyph glyph-name="afii10049" unicode="&#x42f;" horiz-adv-x="1479" 
 />
    <glyph glyph-name="afii10065" unicode="&#x430;" 
 />
    <glyph glyph-name="afii10066" unicode="&#x431;" horiz-adv-x="1173" 
 />
    <glyph glyph-name="afii10067" unicode="&#x432;" horiz-adv-x="1088" 
 />
    <glyph glyph-name="afii10068" unicode="&#x433;" horiz-adv-x="747" 
 />
    <glyph glyph-name="afii10069" unicode="&#x434;" horiz-adv-x="1195" 
 />
    <glyph glyph-name="afii10070" unicode="&#x435;" 
 />
    <glyph glyph-name="afii10072" unicode="&#x436;" horiz-adv-x="1370" 
 />
    <glyph glyph-name="afii10073" unicode="&#x437;" horiz-adv-x="939" 
 />
    <glyph glyph-name="afii10074" unicode="&#x438;" horiz-adv-x="1144" 
 />
    <glyph glyph-name="afii10075" unicode="&#x439;" horiz-adv-x="1144" 
 />
    <glyph glyph-name="afii10076" unicode="&#x43a;" horiz-adv-x="896" 
 />
    <glyph glyph-name="afii10077" unicode="&#x43b;" horiz-adv-x="1195" 
 />
    <glyph glyph-name="afii10078" unicode="&#x43c;" horiz-adv-x="1408" 
 />
    <glyph glyph-name="afii10079" unicode="&#x43d;" horiz-adv-x="1131" 
 />
    <glyph glyph-name="afii10080" unicode="&#x43e;" 
 />
    <glyph glyph-name="afii10081" unicode="&#x43f;" horiz-adv-x="1109" 
 />
    <glyph glyph-name="afii10082" unicode="&#x440;" 
 />
    <glyph glyph-name="afii10083" unicode="&#x441;" horiz-adv-x="1024" 
 />
    <glyph glyph-name="afii10084" unicode="&#x442;" horiz-adv-x="938" 
 />
    <glyph glyph-name="afii10085" unicode="&#x443;" horiz-adv-x="1024" 
 />
    <glyph glyph-name="afii10086" unicode="&#x444;" horiz-adv-x="1685" 
 />
    <glyph glyph-name="afii10087" unicode="&#x445;" horiz-adv-x="1024" 
 />
    <glyph glyph-name="afii10088" unicode="&#x446;" horiz-adv-x="1173" 
 />
    <glyph glyph-name="afii10089" unicode="&#x447;" horiz-adv-x="1067" 
 />
    <glyph glyph-name="afii10090" unicode="&#x448;" horiz-adv-x="1643" 
 />
    <glyph glyph-name="afii10091" unicode="&#x449;" horiz-adv-x="1685" 
 />
    <glyph glyph-name="afii10092" unicode="&#x44a;" horiz-adv-x="1280" 
 />
    <glyph glyph-name="afii10093" unicode="&#x44b;" horiz-adv-x="1472" 
 />
    <glyph glyph-name="afii10094" unicode="&#x44c;" horiz-adv-x="1067" 
 />
    <glyph glyph-name="afii10095" unicode="&#x44d;" horiz-adv-x="1045" 
 />
    <glyph glyph-name="afii10096" unicode="&#x44e;" horiz-adv-x="1536" 
 />
    <glyph glyph-name="afii10097" unicode="&#x44f;" horiz-adv-x="1109" 
 />
    <glyph glyph-name="afii10071" unicode="&#x451;" 
 />
    <glyph glyph-name="afii10099" unicode="&#x452;" 
 />
    <glyph glyph-name="afii10100" unicode="&#x453;" horiz-adv-x="747" 
 />
    <glyph glyph-name="afii10101" unicode="&#x454;" horiz-adv-x="1045" 
 />
    <glyph glyph-name="afii10102" unicode="&#x455;" horiz-adv-x="1024" 
 />
    <glyph glyph-name="afii10103" unicode="&#x456;" horiz-adv-x="455" 
 />
    <glyph glyph-name="afii10104" unicode="&#x457;" horiz-adv-x="569" 
 />
    <glyph glyph-name="afii10105" unicode="&#x458;" horiz-adv-x="455" 
 />
    <glyph glyph-name="afii10106" unicode="&#x459;" horiz-adv-x="1856" 
 />
    <glyph glyph-name="afii10107" unicode="&#x45a;" horiz-adv-x="1664" 
 />
    <glyph glyph-name="afii10108" unicode="&#x45b;" 
 />
    <glyph glyph-name="afii10109" unicode="&#x45c;" horiz-adv-x="896" 
 />
    <glyph glyph-name="afii10110" unicode="&#x45e;" horiz-adv-x="1024" 
 />
    <glyph glyph-name="afii10193" unicode="&#x45f;" horiz-adv-x="1131" 
 />
    <glyph glyph-name="afii10050" unicode="&#x490;" horiz-adv-x="1001" 
 />
    <glyph glyph-name="afii10098" unicode="&#x491;" horiz-adv-x="842" 
 />
    <glyph glyph-name="Wgrave" unicode="&#x1e80;" horiz-adv-x="1933" 
 />
    <glyph glyph-name="wgrave" unicode="&#x1e81;" horiz-adv-x="1479" 
 />
    <glyph glyph-name="Wacute" unicode="&#x1e82;" horiz-adv-x="1933" 
 />
    <glyph glyph-name="wacute" unicode="&#x1e83;" horiz-adv-x="1479" 
 />
    <glyph glyph-name="Wdieresis" unicode="&#x1e84;" horiz-adv-x="1933" 
 />
    <glyph glyph-name="wdieresis" unicode="&#x1e85;" horiz-adv-x="1479" 
 />
    <glyph glyph-name="Ygrave" unicode="&#x1ef2;" horiz-adv-x="1366" 
 />
    <glyph glyph-name="ygrave" unicode="&#x1ef3;" horiz-adv-x="1024" 
 />
    <glyph glyph-name="afii00208" unicode="&#x2015;" horiz-adv-x="2048" 
 />
    <glyph glyph-name="underscoredbl" unicode="&#x2017;" horiz-adv-x="1131" 
 />
    <glyph glyph-name="quotereversed" unicode="&#x201b;" horiz-adv-x="455" 
 />
    <glyph glyph-name="minute" unicode="&#x2032;" horiz-adv-x="384" 
 />
    <glyph glyph-name="second" unicode="&#x2033;" horiz-adv-x="725" 
 />
    <glyph glyph-name="exclamdbl" unicode="&#x203c;" horiz-adv-x="1024" 
 />
    <glyph glyph-name="uni203E" unicode="&#x203e;" horiz-adv-x="682" 
 />
    <glyph glyph-name="uni207F" unicode="&#x207f;" horiz-adv-x="747" 
 />
    <glyph glyph-name="lira" unicode="&#x20a4;" 
 />
    <glyph glyph-name="peseta" unicode="&#x20a7;" horiz-adv-x="2240" 
 />
    <glyph glyph-name="afii61248" unicode="&#x2105;" horiz-adv-x="1813" 
 />
    <glyph glyph-name="afii61289" unicode="&#x2113;" horiz-adv-x="662" 
 />
    <glyph glyph-name="afii61352" unicode="&#x2116;" horiz-adv-x="2197" 
 />
    <glyph glyph-name="estimated" unicode="&#x212e;" horiz-adv-x="1229" 
 />
    <glyph glyph-name="oneeighth" unicode="&#x215b;" horiz-adv-x="1708" 
 />
    <glyph glyph-name="threeeighths" unicode="&#x215c;" horiz-adv-x="1708" 
 />
    <glyph glyph-name="fiveeighths" unicode="&#x215d;" horiz-adv-x="1708" 
 />
    <glyph glyph-name="seveneighths" unicode="&#x215e;" horiz-adv-x="1708" 
 />
    <glyph glyph-name="arrowleft" unicode="&#x2190;" horiz-adv-x="2048" 
 />
    <glyph glyph-name="arrowup" unicode="&#x2191;" horiz-adv-x="1024" 
 />
    <glyph glyph-name="arrowright" unicode="&#x2192;" horiz-adv-x="2048" 
 />
    <glyph glyph-name="arrowdown" unicode="&#x2193;" horiz-adv-x="1024" 
 />
    <glyph glyph-name="arrowboth" unicode="&#x2194;" horiz-adv-x="2048" 
 />
    <glyph glyph-name="arrowupdn" unicode="&#x2195;" horiz-adv-x="1024" 
 />
    <glyph glyph-name="arrowupdnbse" unicode="&#x21a8;" horiz-adv-x="1024" 
 />
    <glyph glyph-name="orthogonal" unicode="&#x221f;" horiz-adv-x="2005" 
 />
    <glyph glyph-name="intersection" unicode="&#x2229;" horiz-adv-x="1472" 
 />
    <glyph glyph-name="equivalence" unicode="&#x2261;" horiz-adv-x="1195" 
 />
    <glyph glyph-name="house" unicode="&#x2302;" horiz-adv-x="1237" 
 />
    <glyph glyph-name="revlogicalnot" unicode="&#x2310;" horiz-adv-x="1196" 
 />
    <glyph glyph-name="integraltp" unicode="&#x2320;" horiz-adv-x="1237" 
 />
    <glyph glyph-name="integralbt" unicode="&#x2321;" horiz-adv-x="1237" 
 />
    <glyph glyph-name="SF100000" unicode="&#x2500;" horiz-adv-x="1451" 
 />
    <glyph glyph-name="SF110000" unicode="&#x2502;" horiz-adv-x="1280" 
 />
    <glyph glyph-name="SF010000" unicode="&#x250c;" horiz-adv-x="1451" 
 />
    <glyph glyph-name="SF030000" unicode="&#x2510;" horiz-adv-x="1451" 
 />
    <glyph glyph-name="SF020000" unicode="&#x2514;" horiz-adv-x="1451" 
 />
    <glyph glyph-name="SF040000" unicode="&#x2518;" horiz-adv-x="1451" 
 />
    <glyph glyph-name="SF080000" unicode="&#x251c;" horiz-adv-x="1451" 
 />
    <glyph glyph-name="SF090000" unicode="&#x2524;" horiz-adv-x="1451" 
 />
    <glyph glyph-name="SF060000" unicode="&#x252c;" horiz-adv-x="1451" 
 />
    <glyph glyph-name="SF070000" unicode="&#x2534;" horiz-adv-x="1451" 
 />
    <glyph glyph-name="SF050000" unicode="&#x253c;" horiz-adv-x="1451" 
 />
    <glyph glyph-name="SF430000" unicode="&#x2550;" horiz-adv-x="1451" 
 />
    <glyph glyph-name="SF240000" unicode="&#x2551;" horiz-adv-x="1451" 
 />
    <glyph glyph-name="SF510000" unicode="&#x2552;" horiz-adv-x="1451" 
 />
    <glyph glyph-name="SF520000" unicode="&#x2553;" horiz-adv-x="1451" 
 />
    <glyph glyph-name="SF390000" unicode="&#x2554;" horiz-adv-x="1451" 
 />
    <glyph glyph-name="SF220000" unicode="&#x2555;" horiz-adv-x="1451" 
 />
    <glyph glyph-name="SF210000" unicode="&#x2556;" horiz-adv-x="1451" 
 />
    <glyph glyph-name="SF250000" unicode="&#x2557;" horiz-adv-x="1451" 
 />
    <glyph glyph-name="SF500000" unicode="&#x2558;" horiz-adv-x="1451" 
 />
    <glyph glyph-name="SF490000" unicode="&#x2559;" horiz-adv-x="1451" 
 />
    <glyph glyph-name="SF380000" unicode="&#x255a;" horiz-adv-x="1451" 
 />
    <glyph glyph-name="SF280000" unicode="&#x255b;" horiz-adv-x="1451" 
 />
    <glyph glyph-name="SF270000" unicode="&#x255c;" horiz-adv-x="1451" 
 />
    <glyph glyph-name="SF260000" unicode="&#x255d;" horiz-adv-x="1451" 
 />
    <glyph glyph-name="SF360000" unicode="&#x255e;" horiz-adv-x="1451" 
 />
    <glyph glyph-name="SF370000" unicode="&#x255f;" horiz-adv-x="1451" 
 />
    <glyph glyph-name="SF420000" unicode="&#x2560;" horiz-adv-x="1451" 
 />
    <glyph glyph-name="SF190000" unicode="&#x2561;" horiz-adv-x="1451" 
 />
    <glyph glyph-name="SF200000" unicode="&#x2562;" horiz-adv-x="1451" 
 />
    <glyph glyph-name="SF230000" unicode="&#x2563;" horiz-adv-x="1451" 
 />
    <glyph glyph-name="SF470000" unicode="&#x2564;" horiz-adv-x="1451" 
 />
    <glyph glyph-name="SF480000" unicode="&#x2565;" horiz-adv-x="1451" 
 />
    <glyph glyph-name="SF410000" unicode="&#x2566;" horiz-adv-x="1451" 
 />
    <glyph glyph-name="SF450000" unicode="&#x2567;" horiz-adv-x="1451" 
 />
    <glyph glyph-name="SF460000" unicode="&#x2568;" horiz-adv-x="1451" 
 />
    <glyph glyph-name="SF400000" unicode="&#x2569;" horiz-adv-x="1451" 
 />
    <glyph glyph-name="SF540000" unicode="&#x256a;" horiz-adv-x="1451" 
 />
    <glyph glyph-name="SF530000" unicode="&#x256b;" horiz-adv-x="1451" 
 />
    <glyph glyph-name="SF440000" unicode="&#x256c;" horiz-adv-x="1451" 
 />
    <glyph glyph-name="upblock" unicode="&#x2580;" horiz-adv-x="1451" 
 />
    <glyph glyph-name="dnblock" unicode="&#x2584;" horiz-adv-x="1451" 
 />
    <glyph glyph-name="block" unicode="&#x2588;" horiz-adv-x="1451" 
 />
    <glyph glyph-name="lfblock" unicode="&#x258c;" horiz-adv-x="1451" 
 />
    <glyph glyph-name="rtblock" unicode="&#x2590;" horiz-adv-x="1451" 
 />
    <glyph glyph-name="ltshade" unicode="&#x2591;" horiz-adv-x="1451" 
 />
    <glyph glyph-name="shade" unicode="&#x2592;" horiz-adv-x="1451" 
 />
    <glyph glyph-name="dkshade" unicode="&#x2593;" horiz-adv-x="1493" 
 />
    <glyph glyph-name="filledbox" unicode="&#x25a0;" horiz-adv-x="1237" 
 />
    <glyph glyph-name="H22073" unicode="&#x25a1;" horiz-adv-x="1237" 
 />
    <glyph glyph-name="H18543" unicode="&#x25aa;" horiz-adv-x="726" 
 />
    <glyph glyph-name="H18551" unicode="&#x25ab;" horiz-adv-x="726" 
 />
    <glyph glyph-name="filledrect" unicode="&#x25ac;" horiz-adv-x="2048" 
 />
    <glyph glyph-name="triagup" unicode="&#x25b2;" horiz-adv-x="2027" 
 />
    <glyph glyph-name="triagrt" unicode="&#x25ba;" horiz-adv-x="2027" 
 />
    <glyph glyph-name="triagdn" unicode="&#x25bc;" horiz-adv-x="2027" 
 />
    <glyph glyph-name="triaglf" unicode="&#x25c4;" horiz-adv-x="2027" 
 />
    <glyph glyph-name="circle" unicode="&#x25cb;" horiz-adv-x="1237" 
 />
    <glyph glyph-name="H18533" unicode="&#x25cf;" horiz-adv-x="1237" 
 />
    <glyph glyph-name="invbullet" unicode="&#x25d8;" horiz-adv-x="1237" 
 />
    <glyph glyph-name="invcircle" unicode="&#x25d9;" horiz-adv-x="1237" 
 />
    <glyph glyph-name="openbullet" unicode="&#x25e6;" horiz-adv-x="726" 
 />
    <glyph glyph-name="smileface" unicode="&#x263a;" horiz-adv-x="2091" 
 />
    <glyph glyph-name="invsmileface" unicode="&#x263b;" horiz-adv-x="2155" 
 />
    <glyph glyph-name="sun" unicode="&#x263c;" horiz-adv-x="1877" 
 />
    <glyph glyph-name="female" unicode="&#x2640;" horiz-adv-x="1536" 
 />
    <glyph glyph-name="male" unicode="&#x2642;" horiz-adv-x="1536" 
 />
    <glyph glyph-name="spade" unicode="&#x2660;" horiz-adv-x="1088" 
 />
    <glyph glyph-name="club" unicode="&#x2663;" horiz-adv-x="1344" 
 />
    <glyph glyph-name="heart" unicode="&#x2665;" horiz-adv-x="1216" 
 />
    <glyph glyph-name="diamond" unicode="&#x2666;" horiz-adv-x="1045" 
 />
    <glyph glyph-name="musicalnote" unicode="&#x266a;" horiz-adv-x="1024" 
 />
    <glyph glyph-name="musicalnotedbl" unicode="&#x266b;" horiz-adv-x="1536" 
 />
    <glyph glyph-name="uniF004" unicode="&#xf004;" horiz-adv-x="682" 
 />
    <glyph glyph-name="uniF005" unicode="&#xf005;" horiz-adv-x="682" 
 />
  </font>
</defs>
</svg>
